Качині історії / DuckTales (Сезон 2) (2018) 1080p Ukr/Eng

Нові коментарі

Нова тема   Відповісти
Автор Повідомлення
sergiyko.5 
Забанено
Забанено


З нами з: 25.02.16
Востаннє: 29.10.20
Повідомлень: 3648

2020-05-09 21:58  


Качині історії / DuckTales (Сезон 2) (2018) 1080p Ukr/Eng


Качині історії / DuckTales (Сезон 2) (2018) 1080p Ukr/Eng

Жанр: пригоди, комедія
Країна: США
Кінокомпанія: Disney Television Animation
Режисер: Дана Тіррас

Сюжет:
Жадібний, але добродушний багатій Скрудж МакДак, який має власний грошовий басейн, постійно потрапляє у халепи… Але йому завжди допомагають племінники – Крячик, Квачик і Кручик. Скрудж – найзаможніший качур у світі, та все одно постійно шукає шляхи для збільшення свого капіталу. А разом із капіталом росте й кількість заздрісників, що бажають Скруджу МакДаку якнайшвидше збанкротувати. Тому він і стає жадібним скнарою для всіх оточуючих, але залишається добрим дядечком для своїх племінників.




Тривалість: 1 серія: 21:40 (цілком серій: 24 з 24)
Якість:

Відео: кодек: розмір кадру: 1920 х 1080 бітрейт: 5300 кб/с
Аудіо # 1: мова: українська переклад: професійний дубльований кодек: 2.0 бітрейт: 192 кб/с
Озвучення:
Аудіо # 2: мова: англійська переклад: оригінал кодек: 2.0 бітрейт: 192 кб/с

Примітка: українська доріжка записана з трансляції телеканала ПлюсПлюс і синхронізована під HD відео, звук не розтягувався і не змінювався тон.
Перелік серій:
01 The Most Dangerous Game... Night
02 The Depths of Cousin Fethry
03 The Ballad of Duke Baloney
04 The Town Where Everyone Was Nice
05 Storkules in Duckburg
06 Last Christmas
07 What Ever Happened to Della Duck
08 Friendship Hates Magic
09 Treasure of the Found Lamp
10 The Outlaw Scrooge McDuck
11 The 87 Cent Solution
12 The Golden Spear
13 Nothing Can Stop Della Duck
14 Raiders of the Doomsday Vault
15 The Dangerous Chemistry of Gandra Dee
16 The Duck Knight Returns
17 Happy Birthday Doofus Drake
18 What Ever Happened to Donald Duck
19 A Nightmare on Killmotor Hill
20 The Golden Armory of Cornelius Coot
21 Timephoon
22 GlomTales
23 The Richest Duck in the World
24 Moonvasion
Про файл:
General
Unique ID : 182334154126644963713288932167588764095 (0x892C47DE0868570383C1A711EAB3D9BF)
Complete name : D:\Documents\Torrents\Rizne\DuckTales S02 1080p \S02E01.The.Most.Dangerous.Game...Night.1080p..
Format :
Format version : Version 4
File size : 885 MiB
Duration : 21 min 36 s
Overall bit rate : 5 724 kb/s
Movie name : DuckTales S02 1080p by sergiyko
Encoded date : UTC 2020-05-09 17:33:54
Writing application : v46.0.0 ('No Deeper Escape') 64-bit
Writing library : libebml v1.3.10 + v1.5.2
Cover : Yes
Attachments : cover.jpg

Video
ID : 1
Format : AVC
Format/Info : Advanced Video Codec
Format profile : [email protected]
Format settings : CABAC / 4 Ref Frames
Format settings, CABAC : Yes
Format settings, Reference : 4 frames
Codec ID : V_MPEG4/ISO/AVC
Duration : 21 min 36 s
Bit rate : 5 337 kb/s
Width : 1 920 pixels
Height : 1 080 pixels
Display aspect ratio : 16:9
Frame rate mode : Constant
Frame rate : 25.000 FPS
Color space : YUV
Chroma subsampling : 4:2:0
Bit depth : 8 bits
Scan type : Progressive
Bits/(Pixel*Frame) : 0.103
Stream size : 825 MiB (93%)
Title : S02E01.The.Most.Dangerous.Game...Night
Language : English
Default : Yes
Forced : No
Color range : Limited
Color primaries : BT.709
Transfer characteristics : BT.709
Matrix coefficients : BT.709

Audio #1
ID : 2
Format : AC-3
Format/Info : Audio Coding 3
Commercial name : Dolby Digital
Codec ID : A_AC3
Duration : 21 min 36 s
Bit rate mode : Constant
Bit rate : 192 kb/s
Channel(s) : 2 channels
Channel layout : L R
Sampling rate : 48.0 kHz
Frame rate : 31.250 FPS (1536 SPF)
Compression mode : Lossy
Stream size : 29.7 MiB (3%)
Title : DUB 2ch | ПлюсПлюс
Language : Ukrainian
Service kind : Complete Main
Default : Yes
Forced : Yes

Audio #2
ID : 3
Format : AC-3
Format/Info : Audio Coding 3
Commercial name : Dolby Digital
Codec ID : A_AC3
Duration : 21 min 36 s
Bit rate mode : Constant
Bit rate : 192 kb/s
Channel(s) : 2 channels
Channel layout : L R
Sampling rate : 48.0 kHz
Frame rate : 31.250 FPS (1536 SPF)
Compression mode : Lossy
Stream size : 29.7 MiB (3%)
Title : Original
Language : English
Service kind : Complete Main
Default : No
Forced : No
Скріншоти:


Запис/зведення: sergiyko
Постер: Acid Crash


Бронзовий реліз (на рейтинг впливає 75% завантаженого)
 Трекер:    Зареєстрований   

Завантажити / скачати мультфільм українською



відео для новачків



 Зареєстрований:   2020-05-31 22:02
 Розмір:   21.6 GB 
 Оцінка мультсеріалу:   9.7/10 (Голосів: 22)
   
Myslytskii 
Новенький


З нами з: 13.07.15
Востаннє: 22.04.21
Повідомлень: 8

2020-05-24 12:34  
Вчора на ПлюсПлюс закінчився другий сезон. Його чекати тут?)
sergiyko.5 
Забанено
Забанено


З нами з: 25.02.16
Востаннє: 29.10.20
Повідомлень: 3648

2020-05-24 22:45  
Додав нові серії. Перелік серій викладених раніше змінено згідно з сайтом wiki.
sergiyko.5 
Забанено
Забанено


З нами з: 25.02.16
Востаннє: 29.10.20
Повідомлень: 3648

2020-05-31 21:59  
Торент оновлено. Додав 8 серію. Сезон повний. Приємного перегляду!
Okraila 
Свій


З нами з: 04.11.20
Востаннє: 20.04.21
Повідомлень: 59

2020-12-25 00:16  
Перший сезон кращий, та цей теж чудовий
Okraila 
Свій


З нами з: 04.11.20
Востаннє: 20.04.21
Повідомлень: 59

2020-12-29 19:49  
Хоча ні, подивився ще декілька серій, цей сезон ще кращий. І велике дякую за роздачу, завантажується неймовірно швидко
Ваш часовий пояс: GMT + 2 Години

Нова тема   Відповісти