Аладдін / Aladdin (1992) UHD Remux 4K 2160p HDR H.265 Ukr/Eng | Sub Ukr/Eng

Нові коментарі

Нова тема   Відповісти
Автор Повідомлення
Python_3.2 
Свій


З нами з: 28.12.12
Востаннє: 25.11.20
Повідомлень: 148

2020-05-09 18:23  
Аладдін / Aladdin (1992) UHD Remux 4K 2160p HDR H.265 Ukr/Eng | Sub Ukr/Eng

Аладдін / Aladdin (1992) UHD Remux 4K 2160p HDR H.265 Ukr/Eng | Sub Ukr/Eng

Альтернативний український постер
Оригінальні постери


Жанр: анімація, сімейний, пригодницький, комедія
Країна: США



Кінокомпанія: Walt Disney Productions, Walt Disney Feature Animation
Режисер: Рон Клементс / Ron Clements, Джон Маскер / John Musker
Актори: Скотт Веінгер / Scott Weinger, Робін Вільямс / Robin Williams, Лінда Ларкін / Linda Larkin, Джонатан Фрімен / Jonathan Freeman, Френк Велкер / Frank Welker, Гілберт Готфрід / Gilbert Gottfried, Дуглас Сейл / Douglas Seale та інші

Сюжет:
У славетному місті Аґраба живе Аладдін, веселий злодюжка із золотим серцем. Живе і не знає, що незабаром його чекає найбільша пригода в житті. Адже тільки з його допомогою чорний маг Джафар може заволодіти неймовірним скарбом ‒ лампою, в якій запроторений могутній Джин, що виконує бажання. І тільки хитромудрість, кмітливість та доброта Аладдіна і його друзів ‒ мавпочки Абу, принцеси Джасмін і самого Джина здатні перешкодити Джафару заволодіти лампою і захопити владу над світом...


Тривалість: 01:30:39
Якість: UHD Remux 4K 2160p
Відео:
кодек: H.265 (HEVC)
розмір кадру: 3840 х 2160
бітрейт: 78.3 Мб/с

Увага! Перед завантаженням переконайтесь, що ваш пристрій відтворення (та/або ПЗ) підтримує H.265 (HEVC)

Аудіо # 1:
мова: українська
переклад: професійний дубльований LeDoyen |
кодек: 2.0
бітрейт: 320 кб/с

Аудіо # 2:
мова: англійська
переклад: оригінал
кодек: -HD 7.1
бітрейт: 4768 кб/с

Аудіо # 3:
мова: англійська
переклад: оригінал
кодек: -HD 5.1
бітрейт: 1509 кб/с

Аудіо # 4:
мова: англійська
переклад: оригінал
кодек: 5.1
бітрейт: 640 кб/с

Аудіо # 5:
мова: англійська
переклад: коментарі №1 (co-writers/co-directors/co-producers Ron Clements and John Musker, and co-producer Amy Pell)
кодек: 2.0
бітрейт: 192 кб/с

Аудіо # 6:
мова: англійська
переклад: коментарі №2 (supervising animators Andreas Deja, Will Finn, Eric Goldberg and Glen Keane)
кодек: 2.0
бітрейт: 192 кб/с

Субтитри # 1, 10-12:
мова: українська (форсовані, повні, пісні, коментарі №1)
тип: програмні (м'які)
формат: *.srt

Субтитри # 2-4:
мова: українська (повні, пісні, коментарі №1)
тип: пререндерні
формат: *.pgs

Субтитри # 5-9:
мова: англійська (повні, повні SDH, пісні, коментарі №1, коментарі №2)
тип: пререндерні
формат: *.pgs

Субтитри # 13:
мова: англійська (повні)
тип: програмні (м'які)
формат: *.srt

Джерело озвучення і субтитрів:
Info
General
Unique ID : 109361107493872910113663496603794026390 (0x52462EE40EB34C8DABFA1BD982B62F96)
Complete name : /media/amd64system/SE16TB/Hurtom/Hurtom Movie/Hurtom Ultra Quality Movie/Aladdin (1992) UHD Remux 4K 2160p HDR H.265 [UKR_ENG] [sub UKR_ENG] [Hurtom].
Format :
Format version : Version 4 / Version 2
File size : 54.5 GiB
Duration : 1 h 30 min
Overall bit rate mode : Variable
Overall bit rate : 86.1 Mb/s
Movie name : Аладдін / Aladdin (1992) UHD Remux 4K 2160p HDR H.265 [UKR_ENG] [sub UKR_ENG] [Hurtom]
Encoded date : UTC 2020-05-09 13:41:01
Writing application : v46.0.0 ('No Deeper Escape') 64-bit
Writing library : libebml v1.3.10 + v1.5.2
Attachments : Aladdin (1992) poster 1 [UKR] [Hurtom].jpg / Aladdin (1992) poster 2 [UKR] [Hurtom].jpg / Aladdin (1992) poster 1 [ENG] [Hurtom].png / Aladdin (1992) poster 2 [ENG] [Hurtom].jpg
IMDB : tt0103639
TMDB : movie/812

Video
ID : 1
Format : HEVC
Format/Info : High Efficiency Video Coding
Format profile : Main [email protected]@High
Codec ID : V_MPEGH/ISO/HEVC
Duration : 1 h 30 min
Bit rate : 78.3 Mb/s
Width : 3 840 pixels
Height : 2 160 pixels
Display aspect ratio : 16:9
Frame rate mode : Constant
Frame rate : 23.976 (24000/1001) FPS
Color space : YUV
Chroma subsampling : 4:2:0 (Type 2)
Bit depth : 10 bits
Bits/(Pixel*Frame) : 0.394
Stream size : 49.6 GiB (91%)
Title : MPEG-H, HEVC Video, 2160p, 78284 kb/s, 23.976 fps, 16:9, Main 10 @ Level 5.1 @ High, 4:2:0, 10-bit, HDR10, BT.2020
Language : English
Default : Yes
Forced : No
Color range : Limited
Color primaries : BT.2020
Transfer characteristics : PQ
Matrix coefficients : BT.2020 non-constant
Mastering display color primaries : Display P3
Mastering display luminance : min: 0.0020 cd/m2, max: 1000 cd/m2

Audio #1
ID : 2
Format : AC-3
Format/Info : Audio Coding 3
Codec ID : A_AC3
Duration : 1 h 30 min
Bit rate mode : Constant
Bit rate : 320 kb/s
Channel(s) : 2 channels
Channel positions : Front: L R
Sampling rate : 48.0 kHz
Frame rate : 31.250 FPS (1536 SPF)
Bit depth : 16 bits
Compression mode : Lossy
Stream size : 208 MiB (0%)
Title : Українська, LeDoyen, Blu-ray CEE, AC-3, 2.0, 320 kb/s, 48 kHz, 16-bit
Language : Ukrainian
Service kind : Complete Main
Default : Yes
Forced : No

Audio #2
ID : 3
Format : TrueHD
Format profile : TrueHD+Atmos / TrueHD
Codec ID : A_TRUEHD
Duration : 1 h 30 min
Bit rate mode : Variable
Bit rate : 4 768 kb/s
Maximum bit rate : 6 816 kb/s
Channel(s) : Object Based / 8 channels
Channel positions : Object Based / Front: L C R, Side: L R, Back: L R, LFE
Sampling rate : / 48.0 kHz
Frame rate : 1 200.000 FPS (40 SPF)
Compression mode : Lossless
Stream size : 3.02 GiB (6%)
Title : English, original, Dolby TrueHD, Dolby Atmos, 7.1, 4769 kb/s, 48 kHz, 24-bit
Language : English
Default : No
Forced : No

Audio #3
ID : 4
Format :
Format/Info : Digital Theater Systems
Codec ID : A_DTS
Duration : 1 h 30 min
Bit rate mode : Constant
Bit rate : 1 509 kb/s
Channel(s) : 6 channels
Channel positions : Front: L C R, Side: L R, LFE
Sampling rate : 48.0 kHz
Frame rate : 93.750 FPS (512 SPF)
Bit depth : 24 bits
Compression mode : Lossy
Stream size : 979 MiB (2%)
Title : English, original, , 5.1, 1509 kb/s, 48 kHz, 24-bit, Compatibility Track
Language : English
Default : No
Forced : No

Audio #4
ID : 5
Format : AC-3
Format/Info : Audio Coding 3
Codec ID : A_AC3
Duration : 1 h 30 min
Bit rate mode : Constant
Bit rate : 640 kb/s
Channel(s) : 6 channels
Channel positions : Front: L C R, Side: L R, LFE
Sampling rate : 48.0 kHz
Frame rate : 31.250 FPS (1536 SPF)
Bit depth : 16 bits
Compression mode : Lossy
Stream size : 415 MiB (1%)
Title : English, original, Dolby Digital Audio, 5.1, 640 kb/s, 48 kHz, 16-bit, Compatibility Track
Language : English
Service kind : Complete Main
Default : No
Forced : No

Audio #5
ID : 6
Format : AC-3
Format/Info : Audio Coding 3
Codec ID : A_AC3
Duration : 1 h 30 min
Bit rate mode : Constant
Bit rate : 192 kb/s
Channel(s) : 2 channels
Channel positions : Front: L R
Sampling rate : 48.0 kHz
Frame rate : 31.250 FPS (1536 SPF)
Bit depth : 16 bits
Compression mode : Lossy
Delay relative to video : 667 ms
Stream size : 125 MiB (0%)
Title : English, commentary №1 | by co-writers/co-directors/co-producers Ron Clements and John Musker, and co-producer Amy Pell | AC-3, 192 kb/s, 48.0 kHz, 16-bit
Language : English
Service kind : Complete Main
Default : No
Forced : No

Audio #6
ID : 7
Format : AC-3
Format/Info : Audio Coding 3
Codec ID : A_AC3
Duration : 1 h 30 min
Bit rate mode : Constant
Bit rate : 192 kb/s
Channel(s) : 2 channels
Channel positions : Front: L R
Sampling rate : 48.0 kHz
Frame rate : 31.250 FPS (1536 SPF)
Bit depth : 16 bits
Compression mode : Lossy
Delay relative to video : 667 ms
Stream size : 125 MiB (0%)
Title : English, commentary №2 | by supervising animators Andreas Deja, Will Finn, Eric Goldberg and Glen Keane | AC-3, 192 kb/s, 48.0 kHz, 16-bit
Language : English
Service kind : Complete Main
Default : No
Forced : No

Text #1
ID : 8
Format : UTF-8
Codec ID : S_TEXT/UTF8
Codec ID/Info : UTF-8 Plain Text
Duration : 1 h 23 min
Bit rate : 0 b/s
Count of elements : 6
Stream size : 164 Bytes (0%)
Title : Українська, переклад, форсовані, SRT, UTF-8
Language : Ukrainian
Default : Yes
Forced : No

Text #2
ID : 9
Format : PGS
Muxing mode : zlib
Codec ID : S_HDMV/PGS
Codec ID/Info : Picture based subtitle format used on BDs/HD-DVDs
Duration : 1 h 29 min
Bit rate : 35.2 kb/s
Count of elements : 2614
Stream size : 22.6 MiB (0%)
Title : Українська, переклад, повні, PGS
Language : Ukrainian
Default : No
Forced : No

Text #3
ID : 10
Format : PGS
Muxing mode : zlib
Codec ID : S_HDMV/PGS
Codec ID/Info : Picture based subtitle format used on BDs/HD-DVDs
Duration : 1 h 24 min
Bit rate : 6 174 b/s
Count of elements : 408
Stream size : 3.75 MiB (0%)
Title : Українська, пісні (Співайво разом), повні, PGS
Language : Ukrainian
Default : No
Forced : No

Text #4
ID : 11
Format : PGS
Muxing mode : zlib
Codec ID : S_HDMV/PGS
Codec ID/Info : Picture based subtitle format used on BDs/HD-DVDs
Duration : 1 h 30 min
Bit rate : 80.1 kb/s
Count of elements : 3694
Stream size : 51.7 MiB (0%)
Title : Українська, коментарі №1, повні, PGS | by co-writers/co-directors/co-producers Ron Clements and John Musker, and co-producer Amy Pell
Language : Ukrainian
Default : No
Forced : No

Text #5
ID : 12
Format : PGS
Muxing mode : zlib
Codec ID : S_HDMV/PGS
Codec ID/Info : Picture based subtitle format used on BDs/HD-DVDs
Duration : 1 h 25 min
Bit rate : 40.4 kb/s
Count of elements : 2588
Stream size : 24.6 MiB (0%)
Title : English, original, Full, PGS
Language : English
Default : No
Forced : No

Text #6
ID : 13
Format : PGS
Muxing mode : zlib
Codec ID : S_HDMV/PGS
Codec ID/Info : Picture based subtitle format used on BDs/HD-DVDs
Duration : 1 h 25 min
Bit rate : 45.4 kb/s
Count of elements : 2938
Stream size : 27.6 MiB (0%)
Title : English, original, Full, SDH, PGS
Language : English
Default : No
Forced : No

Text #7
ID : 14
Format : PGS
Muxing mode : zlib
Codec ID : S_HDMV/PGS
Codec ID/Info : Picture based subtitle format used on BDs/HD-DVDs
Duration : 1 h 24 min
Bit rate : 7 491 b/s
Count of elements : 408
Stream size : 4.54 MiB (0%)
Title : English, songs (Sing-a-long), Full, PGS
Language : English
Default : No
Forced : No

Text #8
ID : 15
Format : PGS
Muxing mode : zlib
Codec ID : S_HDMV/PGS
Codec ID/Info : Picture based subtitle format used on BDs/HD-DVDs
Duration : 1 h 29 min
Bit rate : 89.6 kb/s
Count of elements : 3892
Stream size : 57.5 MiB (0%)
Title : English, commentary №1, Full, PGS | by co-writers/co-directors/co-producers Ron Clements and John Musker, and co-producer Amy Pell
Language : English
Default : No
Forced : No

Text #9
ID : 16
Format : PGS
Muxing mode : zlib
Codec ID : S_HDMV/PGS
Codec ID/Info : Picture based subtitle format used on BDs/HD-DVDs
Duration : 1 h 30 min
Bit rate : 75.8 kb/s
Count of elements : 3432
Stream size : 49.0 MiB (0%)
Title : English, commentary №2, Full, PGS | by supervising animators Andreas Deja, Will Finn, Eric Goldberg and Glen Keane
Language : English
Default : No
Forced : No

Text #10
ID : 17
Format : UTF-8
Codec ID : S_TEXT/UTF8
Codec ID/Info : UTF-8 Plain Text
Duration : 1 h 29 min
Bit rate : 77 b/s
Count of elements : 1302
Stream size : 50.7 KiB (0%)
Title : Українська, переклад, повні, SRT, UTF-8
Language : Ukrainian
Default : No
Forced : No

Text #11
ID : 18
Format : UTF-8
Codec ID : S_TEXT/UTF8
Codec ID/Info : UTF-8 Plain Text
Duration : 1 h 24 min
Bit rate : 14 b/s
Count of elements : 203
Stream size : 8.82 KiB (0%)
Title : Українська, пісні (Співайво разом), повні, SRT, UTF-8
Language : Ukrainian
Default : No
Forced : No

Text #12
ID : 19
Format : UTF-8
Codec ID : S_TEXT/UTF8
Codec ID/Info : UTF-8 Plain Text
Duration : 1 h 30 min
Bit rate : 190 b/s
Count of elements : 1846
Stream size : 126 KiB (0%)
Title : Українська, коментарі №1, повні, SRT, UTF-8 | by co-writers/co-directors/co-producers Ron Clements and John Musker, and co-producer Amy Pell
Language : Ukrainian
Default : No
Forced : No

Text #13
ID : 20
Format : UTF-8
Codec ID : S_TEXT/UTF8
Codec ID/Info : UTF-8 Plain Text
Duration : 1 h 29 min
Bit rate : 68 b/s
Count of elements : 1470
Stream size : 45.1 KiB (0%)
Title : English, original, Full, SRT, UTF-8
Language : English
Default : No
Forced : No

Menu
00:00:00.000 : en:"Arabian Nights"
00:03:06.728 : en:It Begins on a Dark Night
00:06:47.991 : en:Aladdin on the Run / "One Jump Ahead"
00:12:38.091 : en:Princess Jasmine
00:16:35.286 : en:Jasmine Runs Away
00:19:39.720 : en:Jafar Discovers His Diamond in the Rough
00:23:51.138 : en:Jasmine Confronts Jafar
00:27:39.992 : en:Aladdin at the Cave of Wonders
00:31:22.297 : en:A Narrow Escape
00:34:56.344 : en:Trapped!
00:37:21.030 : en:"A Friend Like Me"
00:41:14.055 : en:The Sultan Upbraids Jafar
00:43:33.528 : en:Aladdin Contemplates His Three Wishes
00:47:17.710 : en:Jafar's Solution to the Problem
00:48:40.626 : en:"Prince Ali"
00:55:20.692 : en:Prince Ali Appears on Jasmine's Balcony
00:57:38.413 : en:A Ride on the Magic Carpet / "a Whole New World"
01:03:05.573 : en:Aladdin Almost Drowns
01:07:25.583 : en:Aladdin's Dilemma
01:10:08.079 : en:A Royal Announcement
01:10:42.321 : en:The Genie's New Master
01:15:32.278 : en:Jafar in Power
01:18:58.651 : en:Jafar the Snake
01:21:42.106 : en:Back to Normal
01:25:44.222 : en:End Credits / "a Whole New World"
Скріншоти




Джерело: &
Особиста оцінка: 10 - без зайвих вагань рекомендую всім!


Золотий реліз (завантажене не впливає на рейтинг)
 Трекер:    Зареєстрований   

Завантажити / скачати мультфільм українською



відео для новачків



 Зареєстрований:   2020-05-09 18:23
 Розмір:   54.53 GB 
 Оцінка мультфільму:   10/10 (Голосів: 8)
   
Інші релізи
   Аладдін / Aladdin (1992) AVC Ukr/Eng | Sub Ukr/Eng -_-B_Е_N_D_E_R-_-  14 / 0   2.33 GB   2020-08-09 13:02 
   Аладдін / Aladdin (1992) 1080p H.265 Ukr/Eng | Sub Ukr/Eng -Star-Lord-  11 / 0   4.03 GB   2019-02-16 12:03 
   Аладдін / Aladdin (1992) Ukr/Eng | Sub Ukr/Eng MutuLI  27 / 5   1.66 GB   2013-03-15 19:19 
   Аладдін / Aladdin (1992) 720p Ukr/Eng | Sub Ukr/Eng braveboy  12 / 0   4.36 GB   2013-03-12 18:25 
   Аладдін / Aladdin (1992) 1080p Ukr/Eng | Sub Ukr/Eng igor911  13 / 0   5.97 GB   2013-03-12 10:56 
   Аладдін (НЕ ДІСНЕЙ !!!) / Aladdin (1992) bimm  5 / 0   523 MB   2013-02-22 19:19 
Ваш часовий пояс: GMT + 2 Години

Нова тема   Відповісти