Артур і Мініпути / Arthur and the Minimoys (Сезон 1) (2017) 1080p

Нові коментарі

Нова тема   Відповісти
Останній раз роздавалося Dorian|Gray (2021-04-09)
Автор Повідомлення
sergiyko.5 
Забанено
Забанено


З нами з: 25.02.16
Востаннє: 29.10.20
Повідомлень: 3648

2020-05-09 17:47  


Артур і Мініпути / Arthur and the Minimoys (Сезон 1) (2017) 1080p


Артур і Мініпути / Arthur and the Minimoys (Сезон 1) (2017) 1080p

Жанр: дитячий, пригоди
Країна: Франція, Німеччина, Канада
Компанія: Europa Corp., Studio 100 Animation, Gulli, Canal J, Tiji, The Walt Disney Company
Режисер: Пьєр-Ален Чартьєр

Сюжет:
Маленький хлопчик жив з бабусею, від дідуся залишилися тільки якісь розповіді схожі на казки. Як він подорожував і бачив монстрів в далеких країнах. Онука зацікавила зустріч дідуся з крихітними ельфами. За розповідями родича він знайшов багатство. Може саме ці рубіни врятують ферму сім'ї хороброго воїна Артура. Герой зрозумів, що пора збиратися в подорожі. Взявши меч і рюкзак хлопчина почав пошуки скарбів. Він познайомився з мініпутами, історії дідуся підтверджувалися про все. Хлопця чекав бій зі злом, але нові друзі допоможуть в скрутну хвилину.




Тривалість: 1 серія: 23:16 (цілком серій: 26 з 26)
Якість:

Відео: кодек: розмір кадру: 1920x1080 бітрейт: 6000 кб/с
Аудіо: мова: українська переклад: професійний дубльований кодек: 2.0 бітрейт: 192 кб/с
Озвучення:

Примітка: українська доріжка записана з трансляції T2 і синхронізована під HD відео, звук не розтягувався і не змінювався темп.
Перелік серій
01 Хвалько, гордійка та учень - The Braggart, the Proud and the Apprentice
02 Будь здоровий, Даркосе! - Bless you, Darkos
03 Той, хто має чисте серце - He who Has a Pure Heart
04 Чудова команда - What a Team
05 Слина Гамула - Gamools Drool
06 Пропозиція Мальтазара - Maltazards Offer
07 Аракнофобія - Araknophobia
08 Зникнення чарівного меча - The Magic Sword has Disappeared
09 Порятунок Бетамеша - Saving Betameche
10 Кодекс мініпутів - The Minimoys` Code
11 Великий сон - The Big Snooze
12 День Короля - The Day of the King
13 Забудькуватий Бетамеш - Betameche Loses It
14 Напад Чулопа - The Chilop`s Attack
15 Королева на день - Queen for a Day
16.Mystery and Double-Dealing
17.The Princess of Necropolis
18.The Hugamug Holiday
19 Погане зерня- Bad Seed
20 Крапелька чаю - Just a Touch of Magic
21 Варвар Бетамеш - Betameche the Barbarian
22 Каблучка - The Ring
23 Ескорт - The Escort
24 У пошуках синьої квітки - Blue Flower Blues
25 Яйця подано - For Your Eggs Only
26 Квітка забуття - The Flower of Forgetfulness
Інформація про файл:
General
Unique ID : 131477162323211873180045389880483723003 (0x62E9949494303F99D4DF99B3E39136FB)
Complete name : D:\Documents\Torrents\Rizne\Arthur and the Minimoys S01 1080p \S01E02.Bless you, Darkos.1080p..
Format :
Format version : Version 4
File size : 1.01 GiB
Duration : 23 min 28 s
Overall bit rate : 6 188 kb/s
Movie name : Arthur and the Minimoys S01 1080p by sergiyko
Encoded date : UTC 2020-05-09 14:17:44
Writing application : v46.0.0 ('No Deeper Escape') 64-bit
Writing library : libebml v1.3.10 + v1.5.2

Video
ID : 1
Format : AVC
Format/Info : Advanced Video Codec
Format profile : [email protected]
Format settings : CABAC / 4 Ref Frames
Format settings, CABAC : Yes
Format settings, Reference : 4 frames
Codec ID : V_MPEG4/ISO/AVC
Duration : 23 min 28 s
Bit rate : 5 994 kb/s
Width : 1 920 pixels
Height : 1 080 pixels
Display aspect ratio : 16:9
Frame rate mode : Constant
Frame rate : 25.000 FPS
Color space : YUV
Chroma subsampling : 4:2:0
Bit depth : 8 bits
Scan type : Progressive
Bits/(Pixel*Frame) : 0.116
Stream size : 1 007 MiB (97%)
Title : S01E02.Bless you, Darkos
Writing library : core 159
Encoding settings : cabac=1 / ref=4 / deblock=1:0:0 / analyse=0x3:0x133 / me=umh / subme=10 / psy=1 / psy_rd=1.00:0.00 / mixed_ref=1 / me_range=24 / chroma_me=1 / trellis=2 / 8x8dct=1 / cqm=0 / deadzone=21,11 / fast_pskip=1 / chroma_qp_offset=-2 / threads=24 / lookahead_threads=4 / sliced_threads=0 / nr=0 / decimate=1 / interlaced=0 / bluray_compat=0 / constrained_intra=0 / bframes=8 / b_pyramid=2 / b_adapt=2 / b_bias=0 / direct=3 / weightb=1 / open_gop=0 / weightp=2 / keyint=250 / keyint_min=25 / scenecut=40 / intra_refresh=0 / rc_lookahead=60 / rc=crf / mbtree=1 / crf=18.0 / qcomp=0.60 / qpmin=0 / qpmax=69 / qpstep=4 / ip_ratio=1.40 / aq=1:1.00
Language : French
Default : Yes
Forced : No

Audio
ID : 2
Format : AC-3
Format/Info : Audio Coding 3
Commercial name : Dolby Digital
Codec ID : A_AC3
Duration : 23 min 28 s
Bit rate mode : Constant
Bit rate : 192 kb/s
Channel(s) : 2 channels
Channel layout : L R
Sampling rate : 48.0 kHz
Frame rate : 31.250 FPS (1536 SPF)
Compression mode : Lossy
Stream size : 32.2 MiB (3%)
Title : DUB 2ch | ПлюсПлюс
Language : Ukrainian
Service kind : Complete Main
Default : Yes
Forced : No
Скріншоти:


Запис/ріп: sergiyko


Бронзовий реліз (на рейтинг впливає 75% завантаженого)
 Трекер:    Зареєстрований   

Завантажити / скачати мультфільм українською



відео для новачків



 Зареєстрований:   2020-05-09 17:47
 Розмір:   22.35 GB 
 Оцінка мультсеріалу:   10/10 (Голосів: 2)
   
Ваш часовий пояс: GMT + 2 Години

Нова тема   Відповісти