Міккі та круті перегони / Mickey and the Roadster Racers (Сезон 2) (2019) 720p Ukr/Eng

Нові коментарі

Нова тема   Відповісти
Автор Повідомлення
sergiyko.5 
Забанено
Забанено


З нами з: 25.02.16
Востаннє: 29.10.20
Повідомлень: 3648

2020-05-08 18:36  


Міккі та круті перегони / Mickey and the Roadster Racers (Сезон 2) (2019) 720p Ukr/Eng

Міккі та круті перегони / Mickey and the Roadster Racers (Сезон 2) (2019) 720p Ukr/Eng

Жанр: пригоди, сімейний
Країна: США, Південна Корея
Компанія: Disney Television Animation
Режисер: Філл Вайнштайн

Сюжет:
У містечку, що завжди славилося тишею та спокоєм, раптово всі місцеві жителі вирішили змінити колишнє життя. Вони закинули пішохідні прогулянки, віддавши перевагу швидкісним перегонам на спеціальних родстерах. Міккі Маус, зацікавившись усім цим, не тільки створює власний унікальний автомобіль, але й відкриває власну майстерню. І поки він зайнятий своїм родстером, Мінні роз'їжджає на машині, яка нагадує рожевий бант. Дональд катається на авто у вигляді човна, а Гуффі поєднав приємне з корисним, встановивши ванну на колеса. З кожним днем ​​таких оригінальних машин у містечку стає більше. В якийсь момент городянам приходить в голову думка організувати гонки. І звична дорога додому перетворюється на справжній гоночний трек, а перехожі стають вболівальниками. Хочете дізнатися, хто ж стане кращим гонщиком?




Тривалість: 1 серія: 21:36 (цілком серій: 20 з 25)
Якість:

Відео: кодек: розмір кадру: 1280 х 720 бітрейт: 3400 кб/с
Аудіо # 1: мова: українська переклад: професійний дубльований кодек: 2.0 бітрейт: 192 кб/с
Озвучення:
Аудіо # 2: мова: англійська переклад: оригінал кодек: 2.0 бітрейт: 192 кб/с

Примітка: українська доріжка записана з супутникової трансляції і синхронізована під HD відео, звук не розтягувався і не змінювався темп.
Перелік серій
01.The Biggest Heist Ever-Thrillin Hilda
02.Stop Lazlo-The Hot Diggity Dog Show
03.Donalds Stinky Day-The Hiking Honeybees
04.Racing Rivals-The Hapless Helpers

06.The Roadsterettes-Oh Happy Day
07.Phantom of the Cafe-Cuckoo in Paris
08.Super Charged-Super Charged Mickeys Monster Rally
09.Super Charged Pop Star Helpers-The Chip N Dale 500
10.Mickeys Ukulele Jam-Grandpa vs Grandpa
11.Goof Mansion-A Doozy Night of Mystery
12.Daisys Photo Finish-Super-Charged Daisys Grande Goal
13.Pluto and the Pup-Trouble at Floochis
14.Goofys Drive In-The Iron Mouse
15.Mickey's Big Surprise-Meet the Beagles
16.Snow Go with the Flow-Happy Helpers on Ice
17.Ski Trippin-My Fair Pete
18.Super Charged The Big Cheesy-Shenannygans
20.Mickeys Spring Grand Prix-My Little Daisy
21.Mickeys Funtastical Field Da-Clarabelle on the Mooo-ve

25.Hi Jinx-Petes Junkyard Helpers
Про файл:
General
Unique ID : 99032481239083366242164087166637900309 (0x4A80F64CBEA733360EDB2E9B2FEF0215)
Complete name : D:\Documents\Torrents\Rizne\Mickey and the Roadster Racers S02 720p \S02E01.The Biggest Heist Ever-Thrillin Hilda.720p..
Format :
Format version : Version 4
File size : 593 MiB
Duration : 21 min 36 s
Overall bit rate : 3 838 kb/s
Movie name : Mickey and the Roadster Racers S02 720p by sergiyko
Encoded date : UTC 2020-05-08 14:15:26
Writing application : v46.0.0 ('No Deeper Escape') 64-bit
Writing library : libebml v1.3.10 + v1.5.2

Video
ID : 1
Format : AVC
Format/Info : Advanced Video Codec
Format profile : [email protected]
Format settings : CABAC / 2 Ref Frames
Format settings, CABAC : Yes
Format settings, Reference : 2 frames
Codec ID : V_MPEG4/ISO/AVC
Duration : 21 min 36 s
Bit rate : 3 360 kb/s
Width : 1 280 pixels
Height : 720 pixels
Display aspect ratio : 16:9
Frame rate mode : Constant
Frame rate : 25.000 FPS
Original frame rate : 24.000 FPS
Color space : YUV
Chroma subsampling : 4:2:0
Bit depth : 8 bits
Scan type : Progressive
Bits/(Pixel*Frame) : 0.146
Stream size : 533 MiB (90%)
Title : S02E01.The Biggest Heist Ever-Thrillin Hilda
Writing library : core 148 r2579M 73ae2d1
Encoding settings : cabac=1 / ref=2 / deblock=1:0:0 / analyse=0x3:0x113 / me=hex / subme=2 / psy=1 / psy_rd=1.00:0.00 / mixed_ref=0 / me_range=16 / chroma_me=1 / trellis=0 / 8x8dct=1 / cqm=0 / deadzone=21,11 / fast_pskip=1 / chroma_qp_offset=0 / threads=4 / lookahead_threads=1 / sliced_threads=0 / nr=250 / decimate=1 / interlaced=0 / bluray_compat=0 / stitchable=1 / constrained_intra=0 / bframes=0 / weightp=1 / keyint=250 / keyint_min=24 / scenecut=40 / intra_refresh=0 / rc_lookahead=10 / rc=2pass / mbtree=1 / bitrate=3360 / ratetol=1.0 / qcomp=0.60 / qpmin=5 / qpmax=69 / qpstep=4 / cplxblur=20.0 / qblur=0.5 / ip_ratio=1.40 / aq=1:1.00
Language : English
Default : Yes
Forced : No

Audio #1
ID : 2
Format : AC-3
Format/Info : Audio Coding 3
Commercial name : Dolby Digital
Codec ID : A_AC3
Duration : 21 min 36 s
Bit rate mode : Constant
Bit rate : 192 kb/s
Channel(s) : 2 channels
Channel layout : L R
Sampling rate : 48.0 kHz
Frame rate : 31.250 FPS (1536 SPF)
Compression mode : Lossy
Stream size : 29.7 MiB (5%)
Title : DUB 2ch | ПлюсПлюс
Language : Ukrainian
Service kind : Complete Main
Default : Yes
Forced : Yes

Audio #2
ID : 3
Format : AC-3
Format/Info : Audio Coding 3
Commercial name : Dolby Digital
Codec ID : A_AC3
Duration : 21 min 36 s
Bit rate mode : Constant
Bit rate : 192 kb/s
Channel(s) : 2 channels
Channel layout : L R
Sampling rate : 48.0 kHz
Frame rate : 31.250 FPS (1536 SPF)
Compression mode : Lossy
Stream size : 29.7 MiB (5%)
Title : Original
Language : English
Service kind : Complete Main
Default : No
Forced : No
Скріншоти:


Запис/зведення: sergiyko


Бронзовий реліз (на рейтинг впливає 75% завантаженого)
 Трекер:    Зареєстрований   

Завантажити / скачати мультфільм українською



відео для новачків



 Зареєстрований:   2020-05-08 18:36
 Розмір:   11.72 GB 
 Оцінка мультсеріалу:   10/10 (Голосів: 5)
   
Ваш часовий пояс: GMT + 2 Години

Нова тема   Відповісти