Моторошно голосно і несамовито близько / Extremely Loud & Incredibly Close (2011) 1080p Ukr/Eng | Sub Ukr/Eng

Нові коментарі

Нова тема   Відповісти
Автор Повідомлення
staf777 
Відео Гуртом - підтримка та поширення
Відео Гуртом - підтримка та поширення


З нами з: 16.11.16
Востаннє: 29.09.20
Повідомлень: 4073

2020-05-08 12:02  
Моторошно голосно і несамовито близько / Extremely Loud & Incredibly Close (2011) 1080p Ukr/Eng | Sub Ukr/Eng

Моторошно голосно і несамовито близько / Extremely Loud & Incredibly Close (2011) 1080p Ukr/Eng | Sub Ukr/Eng


Жанр: драма, детектив, пригоди
Країна: США



Кінокомпанія: Warner Bros., Scott Rudin Productions, Paramount Pictures
Режисер: Стівен Долдрі / Stephen Daldry
Актори: Том Хенкс, Сандра Буллок, Томас Хорн, Макс фон Сюдов, Віола Девіс, Джон Гудмен, Джеффрі Райт, Зої Колдуелл, Денніс Хирн, Пол Клементовіц

Сюжет:
Десятирічний Оскар втрачає батька в день атаки на вежі-близнюки в Нью-Йорку. По всьому місту Оскар шукає інформацію, яка повинна привести його до вирішення загадки батька. На шляху хлопчикові зустрінуться різні люди, але їх всіх об'єднує страшна катастрофа, тому кожен намагається впоратися з власним горем.


Тривалість: 02:09:29
Якість: 1080p
Відео:
кодек:
розмір кадру: 1920x800
бітрейт: 10.7 Мб/с

Аудіо # 1:
мова: українська
переклад: багатоголосий закадровий
кодек: 2.0
бітрейт: 192 кб/с

Аудіо # 2:
мова: англійська
переклад: оригінал
кодек: 5.1
бітрейт: 1509 кб/с

Субтитри # 1:
мова: українська
тип: програмні (м'які)
формат: *.srt

Субтитри # 2:
мова: англійська
тип: програмні (м'які)
формат: *.srt
Info
General
Unique ID : 200911450163472281183487439368848902932 (0x972623471FA217FEE88303E713E38B14)
Complete name : C:\Users\staf777\Videos\Extremely Loud & Incredibly Close (2011) 1080p [UKR][ENG]Hurtom].
Format :
Format version : Version 4
File size : 11.2 GiB
Duration : 2 h 9 min
Overall bit rate : 12.4 Mb/s
Movie name : Моторошно голосно і несамовито близько / Extremely Loud & Incredibly Close (2011) 1080p [UKR][ENG]Hurtom]
Encoded date : UTC 2020-05-08 08:34:40
Writing application : v46.0.0 ('No Deeper Escape') 64-bit
Writing library : libebml v1.3.10 + v1.5.2
Cover : Yes
Attachments : cover.jpg

Video
ID : 1
Format : AVC
Format/Info : Advanced Video Codec
Format profile : [email protected]
Format settings : CABAC / 5 Ref Frames
Format settings, CABAC : Yes
Format settings, Reference : 5 frames
Codec ID : V_MPEG4/ISO/AVC
Duration : 2 h 9 min
Bit rate : 10.7 Mb/s
Width : 1 920 pixels
Height : 800 pixels
Display aspect ratio : 2.40:1
Frame rate mode : Constant
Frame rate : 23.976 (24000/1001) FPS
Color space : YUV
Chroma subsampling : 4:2:0
Bit depth : 8 bits
Scan type : Progressive
Bits/(Pixel*Frame) : 0.291
Stream size : 9.67 GiB (86%)
Title : Extremely.Loud&Incredibly.Close.2011.1080p.BluRay..-CtrlHD
Writing library : core 122 r2184 5c85e0a
Encoding settings : cabac=1 / ref=5 / deblock=1:-3:-3 / analyse=0x3:0x113 / me=tesa / subme=11 / psy=1 / psy_rd=1.10:0.00 / mixed_ref=1 / me_range=16 / chroma_me=1 / trellis=2 / 8x8dct=1 / cqm=0 / deadzone=21,11 / fast_pskip=0 / chroma_qp_offset=-2 / threads=6 / sliced_threads=0 / nr=0 / decimate=0 / interlaced=0 / bluray_compat=0 / constrained_intra=0 / bframes=7 / b_pyramid=2 / b_adapt=2 / b_bias=0 / direct=3 / weightb=1 / open_gop=0 / weightp=2 / keyint=250 / keyint_min=23 / scenecut=40 / intra_refresh=0 / rc=2pass / mbtree=0 / bitrate=10700 / ratetol=1.0 / qcomp=0.60 / qpmin=0 / qpmax=69 / qpstep=4 / cplxblur=20.0 / qblur=0.5 / ip_ratio=1.40 / pb_ratio=1.30 / aq=1:0.70
Language : English
Default : Yes
Forced : Yes

Audio #1
ID : 2
Format : AC-3
Format/Info : Audio Coding 3
Commercial name : Dolby Digital
Codec ID : A_AC3
Duration : 2 h 9 min
Bit rate mode : Constant
Bit rate : 192 kb/s
Channel(s) : 2 channels
Channel layout : L R
Sampling rate : 48.0 kHz
Frame rate : 31.250 FPS (1536 SPF)
Compression mode : Lossy
Stream size : 178 MiB (2%)
Language : Ukrainian
Service kind : Complete Main
Default : Yes
Forced : Yes

Audio #2
ID : 3
Format :
Format/Info : Digital Theater Systems
Codec ID : A_DTS
Duration : 2 h 9 min
Bit rate mode : Constant
Bit rate : 1 509 kb/s
Channel(s) : 6 channels
Channel layout : C L R Ls Rs LFE
Sampling rate : 48.0 kHz
Frame rate : 93.750 FPS (512 SPF)
Bit depth : 24 bits
Compression mode : Lossy
Stream size : 1.36 GiB (12%)
Title : 5.1 @ 1536 kbps
Language : English
Default : No
Forced : No

Text #1
ID : 4
Format : UTF-8
Codec ID : S_TEXT/UTF8
Codec ID/Info : UTF-8 Plain Text
Duration : 2 h 8 min
Bit rate : 72 b/s
Count of elements : 1320
Stream size : 68.4 KiB (0%)
Language : Ukrainian
Default : No
Forced : No

Text #2
ID : 5
Format : UTF-8
Codec ID : S_TEXT/UTF8
Codec ID/Info : UTF-8 Plain Text
Duration : 2 h 8 min
Bit rate : 53 b/s
Count of elements : 1398
Stream size : 50.2 KiB (0%)
Language : English
Default : No
Forced : No

Menu
00:00:00.000 : en:00:00:00.000
00:09:45.168 : en:00:09:45.168
00:19:20.868 : en:00:19:20.868
00:30:38.420 : en:00:30:38.420
00:40:29.761 : en:00:40:29.761
00:50:47.670 : en:00:50:47.670
01:02:01.676 : en:01:02:01.676
01:10:17.672 : en:01:10:17.672
01:20:05.676 : en:01:20:05.676
01:30:13.950 : en:01:30:13.950
01:38:48.256 : en:01:38:48.256
01:49:26.310 : en:01:49:26.310
02:00:31.683 : en:02:00:31.683
02:02:19.958 : en:02:02:19.958

Над доріжкою працювали ratbol, OlegCena, AngryBirdsUA
Джерело: &


 Трекер:    Зареєстрований   

Завантажити / скачати фільм українською



відео для новачків



 Зареєстрований:   2020-05-08 12:02
 Розмір:   11.21 GB 
 Оцінка фільму:   9.4/10 (Голосів: 5)
   
Ваш часовий пояс: GMT + 2 Години

Нова тема   Відповісти