Моторошно голосно і несамовито близько / Extremely Loud & Incredibly Close (2011) AVC Ukr/Eng | Sub Ukr/Eng

Нові коментарі

Нова тема   Відповісти
Автор Повідомлення
staf777 
Відео Гуртом - підтримка та поширення
Відео Гуртом - підтримка та поширення


З нами з: 16.11.16
Востаннє: 06.07.20
Повідомлень: 3829

2020-05-08 11:43  
Моторошно голосно і несамовито близько / Extremely Loud & Incredibly Close (2011) AVC Ukr/Eng | Sub Ukr/Eng

Моторошно голосно і несамовито близько / Extremely Loud & Incredibly Close (2011) AVC Ukr/Eng | Sub Ukr/Eng


Жанр: драма, детектив, пригоди
Країна: США



Кінокомпанія: Warner Bros., Scott Rudin Productions, Paramount Pictures
Режисер: Стівен Долдрі / Stephen Daldry
Актори: Том Хенкс, Сандра Буллок, Томас Хорн, Макс фон Сюдов, Віола Девіс, Джон Гудмен, Джеффрі Райт, Зої Колдуелл, Денніс Хирн, Пол Клементовіц

Сюжет:
Десятирічний Оскар втрачає батька в день атаки на вежі-близнюки в Нью-Йорку. По всьому місту Оскар шукає інформацію, яка повинна привести його до вирішення загадки батька. На шляху хлопчикові зустрінуться різні люди, але їх всіх об'єднує страшна катастрофа, тому кожен намагається впоратися з власним горем.


Тривалість: 02:09:29
Якість: AVC
Відео:
кодек:
розмір кадру: 1024x426
бітрейт: 1699 кб/с

Аудіо # 1:
мова: українська
переклад: багатоголосий закадровий
кодек: 2.0
бітрейт: 192 кб/с

Аудіо # 2:
мова: англійська
переклад: оригінал
кодек: 5.1
бітрейт: 448 кб/с

Субтитри # 1:
мова: українська
тип: програмні (м'які)
формат: *.srt

Субтитри # 2:
мова: англійська
тип: програмні (м'які)
формат: *.srt
Info
General
Unique ID : 161845019202494822153963416409848674214 (0x79C23785A850318E254ABCE72E53F7A6)
Complete name : G:\Фільми AVC\Драма\Extremely Loud & Incredibly Close (2011) AVC [UKR][ENG]Hurtom].
Format :
Format version : Version 4
File size : 2.12 GiB
Duration : 2 h 9 min
Overall bit rate : 2 341 kb/s
Movie name : Моторошно голосно і несамовито близько / Extremely Loud & Incredibly Close (2011) AVC [UKR][ENG]Hurtom]
Encoded date : UTC 2020-05-08 10:06:28
Writing application : v46.0.0 ('No Deeper Escape') 64-bit
Writing library : libebml v1.3.10 + v1.5.2
Cover : Yes
Attachments : cover.jpg

Video
ID : 1
Format : AVC
Format/Info : Advanced Video Codec
Format profile : [email protected]
Format settings : CABAC / 8 Ref Frames
Format settings, CABAC : Yes
Format settings, Reference : 8 frames
Codec ID : V_MPEG4/ISO/AVC
Duration : 2 h 9 min
Bit rate : 1 699 kb/s
Width : 1 024 pixels
Height : 426 pixels
Display aspect ratio : 2.40:1
Frame rate mode : Constant
Frame rate : 23.976 (24000/1001) FPS
Color space : YUV
Chroma subsampling : 4:2:0
Bit depth : 8 bits
Scan type : Progressive
Bits/(Pixel*Frame) : 0.162
Stream size : 1.54 GiB (73%)
Title : Rip by Enigma-Vladislav71
Writing library : core 129 r2245 bc13772
Encoding settings : cabac=1 / ref=8 / deblock=1:-2:-2 / analyse=0x3:0x133 / me=umh / subme=11 / psy=1 / psy_rd=1.00:0.00 / mixed_ref=1 / me_range=48 / chroma_me=1 / trellis=2 / 8x8dct=1 / cqm=0 / deadzone=21,11 / fast_pskip=0 / chroma_qp_offset=-2 / threads=3 / lookahead_threads=1 / sliced_threads=0 / nr=0 / decimate=0 / interlaced=0 / bluray_compat=0 / constrained_intra=0 / bframes=8 / b_pyramid=2 / b_adapt=2 / b_bias=0 / direct=3 / weightb=1 / open_gop=0 / weightp=2 / keyint=240 / keyint_min=23 / scenecut=40 / intra_refresh=0 / rc_lookahead=40 / rc=2pass / mbtree=1 / bitrate=1699 / ratetol=1.0 / qcomp=0.60 / qpmin=10 / qpmax=51 / qpstep=4 / cplxblur=20.0 / qblur=0.5 / ip_ratio=1.40 / aq=2:1.00
Language : English
Default : No
Forced : No

Audio #1
ID : 2
Format : AC-3
Format/Info : Audio Coding 3
Commercial name : Dolby Digital
Codec ID : A_AC3
Duration : 2 h 9 min
Bit rate mode : Constant
Bit rate : 192 kb/s
Channel(s) : 2 channels
Channel layout : L R
Sampling rate : 48.0 kHz
Frame rate : 31.250 FPS (1536 SPF)
Compression mode : Lossy
Stream size : 178 MiB (8%)
Title : [UKR-MVO-ICTV]
Language : Ukrainian
Service kind : Complete Main
Default : Yes
Forced : Yes

Audio #2
ID : 3
Format : AC-3
Format/Info : Audio Coding 3
Commercial name : Dolby Digital
Codec ID : A_AC3
Duration : 2 h 9 min
Bit rate mode : Constant
Bit rate : 448 kb/s
Channel(s) : 6 channels
Channel layout : L R C LFE Ls Rs
Sampling rate : 48.0 kHz
Frame rate : 31.250 FPS (1536 SPF)
Compression mode : Lossy
Stream size : 415 MiB (19%)
Language : English
Service kind : Complete Main
Default : No
Forced : No

Text #1
ID : 4
Format : UTF-8
Codec ID : S_TEXT/UTF8
Codec ID/Info : UTF-8 Plain Text
Duration : 2 h 8 min
Bit rate : 72 b/s
Count of elements : 1320
Stream size : 68.4 KiB (0%)
Language : Ukrainian
Default : No
Forced : No

Text #2
ID : 5
Format : UTF-8
Codec ID : S_TEXT/UTF8
Codec ID/Info : UTF-8 Plain Text
Duration : 2 h 0 min
Bit rate : 56 b/s
Count of elements : 1397
Stream size : 50.2 KiB (0%)
Language : English
Default : No
Forced : No

Menu
00:00:00.000 : en:Chapter 01
00:09:45.167 : en:Chapter 02
00:19:20.868 : en:Chapter 03
00:30:38.419 : en:Chapter 04
00:40:29.760 : en:Chapter 05
00:50:47.669 : en:Chapter 06
01:02:01.676 : en:Chapter 07
01:10:17.671 : en:Chapter 08
01:20:05.675 : en:Chapter 09
01:30:13.950 : en:Chapter 10
01:38:48.255 : en:Chapter 11
01:49:26.309 : en:Chapter 12
02:00:31.682 : en:Chapter 13
02:02:19.957 : en:Chapter 14

Над доріжкою працювали ratbol, OlegCena, AngryBirdsUA
Джерело: &


 Трекер:    Зареєстрований   

Завантажити / скачати фільм українською



відео для новачків



 Зареєстрований:   2020-05-08 13:53
 Розмір:   2.12 GB 
 Оцінка фільму:   8.8/10 (Голосів: 21)
   
staf777 
Відео Гуртом - підтримка та поширення
Відео Гуртом - підтримка та поширення


З нами з: 16.11.16
Востаннє: 06.07.20
Повідомлень: 3829

2020-05-08 11:44  
+1080
bot 
робот


З нами з: 30.09.07
Востаннє: 26.05.05
Повідомлень: 24984

2020-05-08 13:53  
Тему перенесено з Анонси релізів до форуму Фільми


staf777

antik_2008 
Релізер і модератор відео


З нами з: 20.10.08
Востаннє: 06.07.20
Повідомлень: 3909

2020-05-08 14:19  
Як кіно?
+380954897458 
VIP


З нами з: 02.06.17
Востаннє: 07.07.20
Повідомлень: 884

2020-05-08 23:32  
Макса фон Сюдова можна було виділити гарним кольором, адже він патріарх світового кіно, який почав зніматися ще задовго до народження Тома Хенкса та Сандри Буллок. За цю роль номінувався на Оскара.
staf777 
Відео Гуртом - підтримка та поширення
Відео Гуртом - підтримка та поширення


З нами з: 16.11.16
Востаннє: 06.07.20
Повідомлень: 3829

2020-05-09 16:54  
+380954897458
Виділив Happy

+380954897458 
VIP


З нами з: 02.06.17
Востаннє: 07.07.20
Повідомлень: 884

2020-05-09 23:28  
staf777
Вдячний! Wide grin

Nickolassssssss 
VIP


З нами з: 31.05.14
Востаннє: 06.07.20
Повідомлень: 301

2020-05-19 08:25  
Сильний фільм. Хоч на сльозу не пробив, проте важке відчуття всередині було. Хочу відзначити гарну гру Сандри Буллок.
Ваш часовий пояс: GMT + 2 Години

Нова тема   Відповісти