Взвод / Platoon (1986) AVC Ukr/Eng | sub Ukr/Eng

Нові коментарі

Нова тема   Відповісти
Автор Повідомлення
Arsenfpu 
Відео Гуртом - фільмокрай
Відео Гуртом - фільмокрай


З нами з: 30.04.09
Востаннє: 05.08.20
Повідомлень: 7115

2020-05-08 09:07  
Взвод / Platoon (1986) AVC Ukr/Eng | sub Ukr/Eng

Взвод / Platoon (1986) AVC Ukr/Eng | sub Ukr/Eng


Жанр: драма, військовий
Країна: Велика Британія, США



Кінокомпанія: Hemdale Film, Cinema 86
Режисер: Олівер Стоун
Актори: Том Беренджер, Віллем Дефо, Чарлі Шин, Форест Вайтакер, Франческо Квінн, Джон К. Маꥳнлі, Річард Едсон, Кевін Діллон, Реджі Джонсон, Кіт Девід, Джонні Депп

Сюжет:
У вересні 1967 року, в прикордонний район між В'єтнамом та Камбоджею, прибув рядовий 25-го піхотного полку Кріс Тейлор. Прибув, щоб своїми очима побачити, як виглядає справжнє Пекло. Не потойбічне, вигадане письменниками чи художниками, а справжнє, цілком земне Пекло, на території якого, вчепилися пазурями один-в-одного сержант Боб Барнс і сержант Ілайес Гродін. Вони теж думали, що будуть воювати з партизанами-в'єтконгівцями, але виявилося, що іноді доводиться битися й зі своїми ...


Тривалість: 01:59:49
Якість:
Відео:
кодек:
розмір кадру: 1 024 х 560
бітрейт: 2 399 кб/с

Аудіо # 1:
мова: українська
переклад: багатоголосий закадровий , , , КІНО
кодек: 2.0
бітрейт: 192 кб/с

Аудіо # 2:
мова: англійська
переклад: оригінал
кодек: 2.0
бітрейт: 192 кб/с

Субтитри:
мова: українська
тип: програмні (м'які)
формат: *.srt

Субтитри:
мова: англійська
тип: програмні (м'які)
формат: *.srt
Скріншоти














Про файл
General
Unique ID : 62133857112146622492689746606417827192 (0x2EBE8BAC4303BD04F2D412588380D578)
Complete name : C:\Platoon (1986) [Ukr,Eng] AVC [Hurtom].
Format :
Format version : Version 4 / Version 2
File size : 2.34 GiB
Duration : 1 h 59 min
Overall bit rate : 2 800 kb/s
Movie name : Взвод / Platoon (1986)
Encoded date : UTC 2020-05-12 21:28:52
Writing application : v21.0.0 ('Tardigrades Will Inherit The Earth') 32-bit
Writing library : libebml v1.3.5 + v1.4.8
Cover : Yes
Attachments : cover.jpg

Video
ID : 1
Format : AVC
Format/Info : Advanced Video Codec
Format profile : [email protected]
Format settings, CABAC : Yes
Format settings, ReFrames : 4 frames
Codec ID : V_MPEG4/ISO/AVC
Duration : 1 h 59 min
Bit rate : 2 399 kb/s
Width : 1 024 pixels
Height : 560 pixels
Display aspect ratio : 1.85:1
Frame rate mode : Constant
Frame rate : 23.976 (24000/1001) FPS
Color space : YUV
Chroma subsampling : 4:2:0
Bit depth : 8 bits
Scan type : Progressive
Bits/(Pixel*Frame) : 0.174
Stream size : 2.01 GiB (86%)
Writing library : core 157 r2935 545de2f
Encoding settings : cabac=1 / ref=3 / deblock=1:-1:-1 / analyse=0x3:0x113 / me=hex / subme=7 / psy=1 / psy_rd=1.00:0.15 / mixed_ref=1 / me_range=16 / chroma_me=1 / trellis=1 / 8x8dct=1 / cqm=0 / deadzone=21,11 / fast_pskip=1 / chroma_qp_offset=-3 / threads=12 / lookahead_threads=2 / sliced_threads=0 / nr=0 / decimate=1 / interlaced=0 / bluray_compat=0 / constrained_intra=0 / bframes=3 / b_pyramid=2 / b_adapt=1 / b_bias=0 / direct=1 / weightb=1 / open_gop=0 / weightp=2 / keyint=240 / keyint_min=23 / scenecut=40 / intra_refresh=0 / rc_lookahead=40 / rc=2pass / mbtree=1 / bitrate=2399 / ratetol=1.0 / qcomp=0.60 / qpmin=0 / qpmax=69 / qpstep=4 / cplxblur=20.0 / qblur=0.5 / ip_ratio=1.40 / aq=1:1.00
Default : Yes
Forced : No

Audio #1
ID : 2
Format : AC-3
Format/Info : Audio Coding 3
Mode extension : CM (complete main)
Format settings, Endianness : Big
Codec ID : A_AC3
Duration : 1 h 59 min
Bit rate mode : Constant
Bit rate : 192 kb/s
Channel(s) : 2 channels
Channel positions : Front: L R
Sampling rate : 48.0 kHz
Frame rate : 31.250 FPS (1536 spf)
Compression mode : Lossy
Stream size : 164 MiB (7%)
Title : НЛО-ТБ
Language : Ukrainian
Default : Yes
Forced : Yes

Audio #2
ID : 3
Format : AC-3
Format/Info : Audio Coding 3
Mode extension : CM (complete main)
Format settings, Endianness : Big
Codec ID : A_AC3
Duration : 1 h 59 min
Bit rate mode : Constant
Bit rate : 192 kb/s
Channel(s) : 2 channels
Channel positions : Front: L R
Sampling rate : 48.0 kHz
Frame rate : 31.250 FPS (1536 spf)
Compression mode : Lossy
Stream size : 165 MiB (7%)
Language : English
Default : No
Forced : No

Text #1
ID : 4
Format : PGS
Muxing mode : zlib
Codec ID : S_HDMV/PGS
Codec ID/Info : Picture based subtitle format used on BDs/HD-DVDs
Duration : 1 h 59 min
Bit rate : 19.9 kb/s
Count of elements : 2176
Stream size : 17.0 MiB (1%)
Language : Ukrainian
Default : Yes
Forced : No

Text #2
ID : 5
Format : PGS
Muxing mode : zlib
Codec ID : S_HDMV/PGS
Codec ID/Info : Picture based subtitle format used on BDs/HD-DVDs
Duration : 1 h 57 min
Bit rate : 37.1 kb/s
Count of elements : 2884
Stream size : 31.3 MiB (1%)
Language : English
Default : No
Forced : No
Джерело:
За запис з ТБ дякую пану xslim
Особиста оцінка: класний фільм


Срібний реліз (на рейтинг впливає 50% завантаженого)
 Трекер:    Зареєстрований   

Завантажити / скачати фільм українською



відео для новачків



 Зареєстрований:   2020-05-13 01:06
 Розмір:   2.34 GB 
 Оцінка фільму:   9.1/10 (Голосів: 12)
   
Інші релізи
   Чота (Взвод) / Platoon (1986) Remux 1080p Ukr/Eng | Sub Ukr/Eng kryk-v.ya.  0 / 0   25.89 GB   2020-05-12 00:48 
   Взвод (Чота) / Platoon (1986) Ukr/Eng | Sub Ukr/Eng JACKUS  8 / 0   2.19 GB   2014-08-07 15:35 
   Взвод / Platoon (1986) 720р Ukr/Eng | Sub Ukr/Eng SuperContik  3 / 0   7.02 GB   2011-06-28 22:22 
bot 
робот


З нами з: 30.09.07
Востаннє: 26.05.05
Повідомлень: 25168

2020-05-13 01:06  
Тему перенесено з Анонси релізів до форуму Фільми


Arsenfpu

Ваш часовий пояс: GMT + 2 Години

Нова тема   Відповісти