Вовча яма / Wolf Creek (2005) 1080p Ukr/Eng | Sub Eng

Нові коментарі

Нова тема   Відповісти
Автор Повідомлення
Anonymous 







2020-05-07 21:09  
Вовча яма / Wolf Creek (2005) 1080p Ukr/Eng | Sub Eng


Альтернативні постери:

Вовча яма / Wolf Creek (2005) 1080p Ukr/Eng | Sub Eng




Жанр: жахи, трилер
Країна: Австралія



Кінокомпанія: Australian Film Finance Corporation, The, South Australian Film Corporation, The, 403 Productions
Режисер: Ґреґ МакЛін / Greg McLean
Сценарист: Ґреґ МакЛін / Greg McLean
Композитор: Франсуа Тетаз / François Tétaz
Актори: Джон Джерет / John Jarratt, Касандра Маґрат / Cassandra Magrath, Кесті Морассі / Kestie Morassi, Натан Філіпс / Nathan Phillips, Ґордон Пул / Gordon Poole та інші
Бюджет: 1 000 000 $

Сюжет:
Щороку в Австралії зникає 30 тис людей, частину з них знаходять через місяць, частину знаходять через рік. Деяких не знаходять ніколи... Фільм заснований на реальних подіях. Група студентів відправляється в подорож по Австралії, щоб знайти гігантський кратер, що утворився в результаті падіння метеорита. Це місце оповито страшними таємницями і містичними історіями. Наші герої і не могли препустити, що учасниками чергової такої містичної історії стануть вони самі...

Тривалість:
Якість: 1080p
Відео:
Кодек:
Розмір кадру: 1920 x 1044
Бітрейт: 11.8 Мбіт/с

Аудіо 1:
Мова: українська
Переклад: багатоголосий закадровий [НЛО-ТВ]

Кодек: 2.0
Бітрейт: 192 Кбіт/с

Аудіо 2:
Мова: англійська
Переклад: Оригінал
Кодек: 5.1
Бітрейт: 512 Кбіт/с

Субтитри:
Мова: англійська | Повні
Тип: програмні (м'які)
Формат: *.srt

Info


General
Unique ID : 169234410453507506449889738733861671483 (0x7F515CA3992ED968A78BEF1F985F123B)
Format :
Format version : Version 4
File size : 8.66 GiB
Duration : 1 h 39 min
Overall bit rate : 12.5 Mb/s
Movie name : Wolf Creek (2005) 1080p [UkrEng][SubEng] [Hurtom]
Encoded date : UTC 2020-05-07 17:52:18
Writing application : v46.0.0 ('No Deeper Escape') 64-bit
Writing library : libebml v1.3.10 + v1.5.2
Attachments : poster_ukr.jpg / poster_eng.jpg

Video
ID : 1
Format : AVC
Format/Info : Advanced Video Codec
Format profile : [email protected]
Format settings : CABAC / 4 Ref Frames
Format settings, CABAC : Yes
Format settings, Reference fra : 4 frames
Codec ID : V_MPEG4/ISO/AVC
Duration : 1 h 39 min
Bit rate : 11.8 Mb/s
Width : 1 920 pixels
Height : 1 044 pixels
Display aspect ratio : 1.85:1
Frame rate mode : Constant
Frame rate : 24.000 FPS
Color space : YUV
Chroma subsampling : 4:2:0
Bit depth : 8 bits
Scan type : Progressive
Bits/(Pixel*Frame) : 0.246
Stream size : 8.17 GiB (94%)
Title : Wolf Creek (2005) 1080p
Writing library : core 138 r2358 9e941d1
Encoding settings : cabac=1 / ref=4 / deblock=1:0:0 / analyse=0x3:0x133 / me=umh / subme=10 / psy=1 / psy_rd=1.00:0.00 / mixed_ref=1 / me_range=32 / chroma_me=1 / trellis=2 / 8x8dct=1 / cqm=0 / deadzone=21,11 / fast_pskip=1 / chroma_qp_offset=-2 / threads=12 / lookahead_threads=2 / sliced_threads=0 / nr=0 / decimate=1 / interlaced=0 / bluray_compat=0 / constrained_intra=0 / bframes=8 / b_pyramid=2 / b_adapt=2 / b_bias=0 / direct=3 / weightb=1 / open_gop=0 / weightp=2 / keyint=240 / keyint_min=24 / scenecut=40 / intra_refresh=0 / rc=2pass / mbtree=0 / bitrate=11820 / ratetol=1.0 / qcomp=0.60 / qpmin=0 / qpmax=69 / qpstep=4 / cplxblur=20.0 / qblur=0.5 / ip_ratio=1.40 / pb_ratio=1.30 / aq=1:1.00
Language : English
Default : Yes
Forced : No

Audio #1
ID : 2
Format : AC-3
Format/Info : Audio Coding 3
Commercial name : Dolby Digital
Codec ID : A_AC3
Duration : 1 h 39 min
Bit rate mode : Constant
Bit rate : 192 kb/s
Channel(s) : 2 channels
Channel layout : L R
Sampling rate : 48.0 kHz
Frame rate : 31.250 FPS (1536 SPF)
Bit depth : 16 bits
Compression mode : Lossy
Stream size : 136 MiB (2%)
Title : MVO [НЛО-ТВ] 2.0 @ 192 Кбіт/с
Language : Ukrainian
Service kind : Complete Main
Default : Yes
Forced : No

Audio #2
ID : 3
Format : AC-3
Format/Info : Audio Coding 3
Commercial name : Dolby Digital
Codec ID : A_AC3
Duration : 1 h 38 min
Bit rate mode : Constant
Bit rate : 512 kb/s
Channel(s) : 6 channels
Channel layout : L R C LFE Ls Rs
Sampling rate : 48.0 kHz
Frame rate : 31.250 FPS (1536 SPF)
Bit depth : 16 bits
Compression mode : Lossy
Stream size : 362 MiB (4%)
Title : [Оригінал] 5.1 @ 512 Кбіт/с
Language : English
Service kind : Complete Main
Default : No
Forced : No

Text
ID : 4
Format : UTF-8
Codec ID : S_TEXT/UTF8
Codec ID/Info : UTF-8 Plain Text
Duration : 1 h 24 min
Bit rate : 32 b/s
Count of elements : 713
Stream size : 20.2 KiB (0%)
Title : Повні
Language : English
Default : No
Forced : No
Скріншоти








Запис з ТБ: POMEO
Зведення української доріжки: patriot2305
Постер: kvvdvd

Джерело:


 Трекер:    Зареєстрований   

Завантажити / скачати фільм українською



відео для новачків



 Зареєстрований:   2020-05-07 21:10
 Розмір:   8.66 GB 
 Оцінка фільму:   10/10 (Голосів: 2)
   
Інші релізи
   Вовча яма / Wolf Creek (2005) Remux 1080p Ukr/Eng kvvdvd  0 / 0   14.46 GB   2017-07-03 22:12 
   Вовча яма / Wolf Creek (2005) Ukr/Eng patriot2305  2 / 0   1.46 GB   2014-08-02 21:06 
Ваш часовий пояс: GMT + 2 Години

Нова тема   Відповісти