Маленька Америка (Сезон 1, серія 01-06) / Little America (Season 1, episode 01-06) (2020) 1080p Ukr/Eng | sub Ukr/Eng

Нові коментарі

Нова тема   Відповісти
Автор Повідомлення
dragheart 
Свій


З нами з: 27.01.16
Востаннє: 28.05.20
Повідомлень: 96

2020-05-07 18:37  
Маленька Америка (Сезон 1, серія 01-06) / Little America (Season 1, episode 01-06) (2020) 1080p Ukr/Eng | sub Ukr/Eng

Маленька Америка (Сезон 1, серія 01-06) / Little America (Season 1, episode 01-06) (2020) 1080p Ukr/Eng | sub Ukr/Eng


Жанр: драма, комедія, (8-а серія - ЛГБТ)
Країна: США



Кінокомпанія: EPIC Magazine, Universal Television, Apple TV+
Режисер: Сіан Хедер / Sian Heder, Це Чун / Tze Chun, Стівен Данн / Stephen Dunn, Діпа Мехта / Deepa Mehta, Бхарат Наллури / Bharat Nalluri, Німа Нурізаде / Nima Nourizadeh
Актори: Анджела Лін / Angela Lin, Ікс Лі / X. Lee, Джастін Едут / Justin Ahdoot, Маделін Чан / Madeleine Chang, Авріл Лєна Вей / Avril Lena Wei, Мішель Еммон / Michele Ammon, Гілларі Бак / Hillary Baack, Нік Бейлі / Nick Bailey, Санкріш Бала / Sunkrish Bala, Сахар Бібіян / Sahar Bibiyan, Пріянка Бозе / Priyanka Bose, Конфіданс / Conphidance, Закарі Квінто / Zachary Quinto та інші

Сюжет:
Серіал засновано на справжніх історіях реальних людей, опублікованих в журналі Epic Magazine. Смішні, романтичні, дивовижні, зворушливі, надихаючі, огидні - ці історії розповідають про життя іммігрантів в США і як вони намагаються пристосуватися до нового дому, нового суспільства і нового життя.


Тривалість: 1 серія: ~ 32 хв (цілком серій: 6/8)
Перелік серій
1. Менеджер / The Manager
2. Ягуар / The Jaguar
3. Ковбой / The Cowboy
4. Мовчанка / The Silence
5. Пекар / The Baker
6. Переможці лотереї / The Grand Expo Winners
7. Камінь / The Rock
8. Син / The Son
Якість:
Відео:
кодек:
розмір кадру: 1920 х 1012
бітрейт: 9869 кб/с

Аудіо # 1:
мова: українська
переклад: багатоголосий закадровий
кодек: 5.1
бітрейт: 384 кб/с
ролі озвучують: Olegolas, Artymko, Rainy984
таймінг: KohinSan

Аудіо # 2:
мова: англійська
переклад: оригінал
кодек: Е- 5.1
бітрейт: 768 кб/с

Субтитри:
мова: українська
тип: програмні (м'які)
формат: *.srt
перекладач: Олена Цехмейструк

Субтитри:
мова: англійська
тип: програмні (м'які)
формат: *.srt

Info
General
Unique ID : 291208057949252669409218067814836487451 (0xDB14A1C3395867392AAB9ACDAB2A451B)
Complete name : F:\Little America\Little.America.S01E01.1080p.Ukr.Eng.
Format :
Format version : Version 4 / Version 2
File size : 2.29 GiB
Duration : 29mn 8s
Overall bit rate : 11.2 Mbps
Encoded date : UTC 2020-05-07 10:53:26
Writing application : v23.0.0 ('The Bride Said No') 64-bit
Writing library : libebml v1.3.6 + v1.4.9
DURATION : 00:29:00.826000000
NUMBER_OF_FRAMES : 393
NUMBER_OF_BYTES : 16871
_STATISTICS_WRITING_APP : v23.0.0 ('The Bride Said No') 64-bit
_STATISTICS_WRITING_DATE_UTC : 2020-05-07 10:53:26
_STATISTICS_TAGS : BPS DURATION NUMBER_OF_FRAMES NUMBER_OF_BYTES

Video
ID : 1
Format : AVC
Format/Info : Advanced Video Codec
Format profile : [email protected]
Format settings, CABAC : Yes
Format settings, ReFrames : 4 frames
Codec ID : V_MPEG4/ISO/AVC
Duration : 29mn 8s
Bit rate : 9 869 Kbps
Width : 1 920 pixels
Height : 1 012 pixels
Display aspect ratio : 1.897
Frame rate : 23.976 fps
Color space : YUV
Chroma subsampling : 4:2:0
Bit depth : 8 bits
Scan type : Progressive
Bits/(Pixel*Frame) : 0.212
Stream size : 2.01 GiB (88%)
Language : English
Default : Yes
Forced : No
Color primaries : BT.709-5, BT.1361, IEC 61966-2-4, SMPTE RP177
Transfer characteristics : BT.709-5, BT.1361
Matrix coefficients : BT.709-5, BT.1361, IEC 61966-2-4 709, SMPTE RP177

Audio #1
ID : 2
Format : AC-3
Format/Info : Audio Coding 3
Mode extension : CM (complete main)
Codec ID : A_AC3
Duration : 29mn 8s
Bit rate mode : Constant
Bit rate : 384 Kbps
Channel(s) : 6 channels
Channel positions : Front: L C R, Side: L R, LFE
Sampling rate : 48.0 KHz
Bit depth : 16 bits
Compression mode : Lossy
Stream size : 80.0 MiB (3%)
Language : Ukrainian
Default : Yes
Forced : No

Audio #2
ID : 3
Format : E-AC-3
Format/Info : Audio Coding 3
Codec ID : A_EAC3
Duration : 29mn 8s
Bit rate mode : Constant
Bit rate : 768 Kbps
Channel(s) : 6 channels
Channel positions : Front: L C R, Side: L R, LFE
Sampling rate : 48.0 KHz
Compression mode : Lossy
Stream size : 160 MiB (7%)
Title : Original
Language : English
Default : No
Forced : No

Text #1
ID : 4
Format : UTF-8
Codec ID : S_TEXT/UTF8
Codec ID/Info : UTF-8 Plain Text
Language : Ukrainian
Default : Yes
Forced : No

Text #2
ID : 5
Format : UTF-8
Codec ID : S_TEXT/UTF8
Codec ID/Info : UTF-8 Plain Text
Title : English
Language : English
Default : No
Forced : No
Скріншоти



Джерело:
Українізація постера: DanyZemlyanoy


Авторський реліз (завантажувати можна без реєстрації)
 Трекер:    Зареєстрований   

Завантажити / скачати серіал українською



відео для новачків



 Зареєстрований:   2020-05-25 15:19
 Розмір:   14.86 GB 
 Оцінка серіалу:   9.2/10 (Голосів: 11)
   
dragheart 
Свій


З нами з: 27.01.16
Востаннє: 28.05.20
Повідомлень: 96

2020-05-11 16:56  
Додано 2-у серію
munipet 
VIP


З нами з: 14.04.11
Востаннє: 29.05.20
Повідомлень: 301

2020-05-12 01:22  
Гидота!
abdul37 
Новенький


З нами з: 31.01.16
Востаннє: 28.05.20
Повідомлень: 3

2020-05-14 12:12  
Дякую! Гарний серіял. Нарешті щось оригінальне. Подивлюся далі англійською мабуть офіційно на appleTV+
dragheart 
Свій


З нами з: 27.01.16
Востаннє: 28.05.20
Повідомлень: 96

2020-05-15 13:09  
Додано 3-ю серію
dragheart 
Свій


З нами з: 27.01.16
Востаннє: 28.05.20
Повідомлень: 96

2020-05-18 15:38  
Додано 4-у серію
dragheart 
Свій


З нами з: 27.01.16
Востаннє: 28.05.20
Повідомлень: 96

2020-05-22 12:47  
Додано 5-у серію
dragheart 
Свій


З нами з: 27.01.16
Востаннє: 28.05.20
Повідомлень: 96

2020-05-25 15:26  
Додано 6-у серію
Ваш часовий пояс: GMT + 2 Години

Нова тема   Відповісти