Трикутник / Triangle [Open Matte] (2009) 1080p 2xUkr/Eng | sub Ukr/Eng

Нові коментарі

Нова тема   Відповісти
Автор Повідомлення
staf777 
Відео Гуртом - підтримка та поширення
Відео Гуртом - підтримка та поширення


З нами з: 16.11.16
Востаннє: 26.02.21
Повідомлень: 5056

2020-05-07 15:05  
Трикутник / Triangle [Open Matte] (2009) 1080p 2xUkr/Eng | sub Ukr/Eng

Трикутник / Triangle [Open Matte] (2009) 1080p 2xUkr/Eng | sub Ukr/Eng


Жанр: фантастика, трилер
Країна: Велика Британія, Австралія



Кінокомпанія: Icon Entertainment International, Framestore, UK Film Council
Режисер: Крістофер Сміт / Christopher Smith
Актори: Меліса Джордж / Melissa George, Майкл Дорман / Michael Dorman, Генрі Ніксон / Henry Nixon, Рейчал Карпані / Rachael Carpani, Емма Ланґ / Emma Lung та інші

Сюжет:
Грег запрошує свою подругу Джесс, молоду матір-одиначку, провести день на яхті у колі своїх друзів. Сильний шторм перевертає судно, і ті, хто залишилися в живих, змушені чекати на допомогу, чіпляючись за перегорнутий корпус яхти. Порятунок приходить у вигляді величезного океанічного лайнера. Судно виявляється порожнім, годинник на борту зупинився. Але вони не єдині на цьому величезному кораблі - за ними хтось невпинно стежить...


Тривалість: 01:38:52
Якість: 1080p | Open Matte => порівняння наповнення кадру (трохи додано згори/знизу та обрізано з боків)
Відео:
кодек:
розмір кадру: 1920x1080
бітрейт: 10000 кб/с

Аудіо # 1:
мова: українська
переклад: багатоголосий закадровий
кодек: 2.0
бітрейт: 192 кб/с

Аудіо # 2:
мова: українська
переклад: багатоголосий закадровий
кодек: 2.0
бітрейт: 192 кб/с

Аудіо # 3:
мова: англійська
переклад: оригінал
кодек: 5.1
бітрейт: 1550 кб/с

Аудіо # 4:
мова: англійська
переклад: коментарі творця фільму
кодек: 2.0
бітрейт: 192 кб/с

Аудіо # 5:
мова: англійська
переклад: коментарі
кодек: 2.0
бітрейт: 192 кб/с

Субтитри:
мова: українська
тип: програмні (м'які)
формат: *.srt

Субтитри:
мова: англійська
тип: програмні (м'які)
формат: *.srt
Info
General
Unique ID : 179685308995028952340716723724823435530 (0x872E21B823C81A36B053155AB402190A)
Complete name : D:\Жахи\Triangle (2009) 1080p Open Matte [2xUKR_ENG] [Hurtom].
Format :
Format version : Version 4
File size : 8.47 GiB
Duration : 1 h 38 min
Overall bit rate : 12.3 Mb/s
Movie name : Трикутник / Triangle (2009) 1080p | Open Matte [2xUKR_ENG] [Hurtom]
Encoded date : UTC 2020-05-07 16:45:49
Writing application : v46.0.0 ('No Deeper Escape') 64-bit
Writing library : libebml v1.3.10 + v1.5.2
Cover : Yes
Attachments : Cover.jpg

Video
ID : 1
Format : AVC
Format/Info : Advanced Video Codec
Format profile : [email protected]
Format settings : CABAC / 4 Ref Frames
Format settings, CABAC : Yes
Format settings, Reference : 4 frames
Codec ID : V_MPEG4/ISO/AVC
Duration : 1 h 38 min
Bit rate : 10 000 kb/s
Width : 1 920 pixels
Height : 1 080 pixels
Display aspect ratio : 16:9
Frame rate mode : Constant
Frame rate : 24.000 FPS
Color space : YUV
Chroma subsampling : 4:2:0
Bit depth : 8 bits
Scan type : Progressive
Bits/(Pixel*Frame) : 0.201
Stream size : 6.90 GiB (81%)
Writing library : core 146 r2538 121396c
Encoding settings : cabac=1 / ref=4 / deblock=1:-3:-3 / analyse=0x3:0x133 / me=umh / subme=11 / psy=1 / psy_rd=1.00:0.00 / mixed_ref=1 / me_range=32 / chroma_me=1 / trellis=2 / 8x8dct=1 / cqm=0 / deadzone=21,11 / fast_pskip=0 / chroma_qp_offset=-2 / threads=12 / lookahead_threads=2 / sliced_threads=0 / nr=0 / decimate=0 / interlaced=0 / bluray_compat=0 / constrained_intra=0 / bframes=10 / b_pyramid=2 / b_adapt=2 / b_bias=0 / direct=3 / weightb=1 / open_gop=0 / weightp=2 / keyint=240 / keyint_min=24 / scenecut=40 / intra_refresh=0 / rc=2pass / mbtree=0 / bitrate=10000 / ratetol=1.0 / qcomp=0.60 / qpmin=0 / qpmax=69 / qpstep=4 / cplxblur=20.0 / qblur=0.5 / ip_ratio=1.40 / pb_ratio=1.30 / aq=1:0.80
Language : English
Default : No
Forced : No

Audio #1
ID : 2
Format : AC-3
Format/Info : Audio Coding 3
Commercial name : Dolby Digital
Codec ID : A_AC3
Duration : 1 h 38 min
Bit rate mode : Constant
Bit rate : 192 kb/s
Channel(s) : 2 channels
Channel layout : L R
Sampling rate : 48.0 kHz
Frame rate : 31.250 FPS (1536 SPF)
Compression mode : Lossy
Stream size : 136 MiB (2%)
Title : 2.0 @ 192 kbps - НТН
Language : Ukrainian
Service kind : Complete Main
Default : Yes
Forced : Yes

Audio #2
ID : 3
Format : AC-3
Format/Info : Audio Coding 3
Commercial name : Dolby Digital
Codec ID : A_AC3
Duration : 1 h 38 min
Bit rate mode : Constant
Bit rate : 192 kb/s
Channel(s) : 2 channels
Channel layout : L R
Sampling rate : 48.0 kHz
Frame rate : 31.250 FPS (1536 SPF)
Compression mode : Lossy
Stream size : 136 MiB (2%)
Title : 2.0 @ 192 kbps - НЛО
Language : Ukrainian
Service kind : Complete Main
Default : No
Forced : No

Audio #3
ID : 4
Format :
Format/Info : Digital Theater Systems
Codec ID : A_DTS
Duration : 1 h 38 min
Bit rate mode : Constant
Bit rate : 1 509 kb/s
Channel(s) : 6 channels
Channel layout : C L R Ls Rs LFE
Sampling rate : 48.0 kHz
Frame rate : 93.750 FPS (512 SPF)
Bit depth : 16 bits
Compression mode : Lossy
Stream size : 1.04 GiB (12%)
Language : English
Default : No
Forced : No

Audio #4
ID : 5
Format : AC-3
Format/Info : Audio Coding 3
Commercial name : Dolby Digital
Codec ID : A_AC3
Duration : 1 h 38 min
Bit rate mode : Constant
Bit rate : 192 kb/s
Channel(s) : 2 channels
Channel layout : L R
Sampling rate : 48.0 kHz
Frame rate : 31.250 FPS (1536 SPF)
Compression mode : Lossy
Stream size : 136 MiB (2%)
Language : English
Service kind : Complete Main
Default : No
Forced : No

Audio #5
ID : 6
Format : AC-3
Format/Info : Audio Coding 3
Commercial name : Dolby Digital
Codec ID : A_AC3
Duration : 1 h 38 min
Bit rate mode : Constant
Bit rate : 192 kb/s
Channel(s) : 2 channels
Channel layout : L R
Sampling rate : 48.0 kHz
Frame rate : 31.250 FPS (1536 SPF)
Compression mode : Lossy
Stream size : 136 MiB (2%)
Language : English
Service kind : Complete Main
Default : No
Forced : No

Text #1
ID : 7
Format : UTF-8
Codec ID : S_TEXT/UTF8
Codec ID/Info : UTF-8 Plain Text
Duration : 1 h 33 min
Bit rate : 64 b/s
Count of elements : 780
Stream size : 43.7 KiB (0%)
Title : Full by ninenine
Language : Ukrainian
Default : No
Forced : No

Text #2
ID : 8
Format : UTF-8
Codec ID : S_TEXT/UTF8
Codec ID/Info : UTF-8 Plain Text
Duration : 1 h 33 min
Bit rate : 35 b/s
Count of elements : 898
Stream size : 24.1 KiB (0%)
Title : Full
Language : English
Default : No
Forced : No

Menu
00:00:00.000 : :Chapter 01
00:00:48.000 : :Chapter 02
00:08:10.833 : :Chapter 03
00:16:15.500 : :Chapter 04
00:25:30.333 : :Chapter 05
00:33:24.083 : :Chapter 06
00:42:04.541 : :Chapter 07
00:50:08.416 : :Chapter 08
01:01:17.916 : :Chapter 09
01:10:02.750 : :Chapter 10
01:19:32.208 : :Chapter 11
01:34:14.000 : :Chapter 12



Подяки:
За запис з ТБ: Sando7, ratbol, POMEO, krigg070
за синхронізацію: patriot2305, krigg070
за субтитри: ninenine
за постер: Zubr139

Джерело: &
Особиста оцінка: 8 - мені сподобалося


 Трекер:    Зареєстрований   

Завантажити / скачати фільм українською



відео для новачків



 Зареєстрований:   2020-05-07 19:16
 Розмір:   8.47 GB 
 Оцінка фільму:   8.9/10 (Голосів: 9)
   
Інші релізи
   Трикутник / Triangle (2009) Remux 1080р 2xUkr/Eng | sub Ukr/Eng staf777  2 / 0   19.01 GB   2018-08-05 08:55 
   Трикутник / Triangle (2009) 1080p 2xUkr/Eng | sub Ukr/Eng IronBee  2 / 0   11.98 GB   2017-06-27 20:29 
   Трикутник / Triangle (2009) [MP4, 640x] apvAltisimo  0 / 0   659 MB   2016-12-27 18:27 
   Трикутник / Triangle (2009) AVC 2xUkr/Eng | sub Ukr/Eng krigg070  8 / 0   2.19 GB   2016-12-20 13:46 
   Трикутник / Triangle (2009) 720p Ukr/Eng | sub Ukr/Eng ninenine  3 / 0   5.69 GB   2013-10-27 10:08 
   Трикутник / Triangle (2009) patriot2305  1 / 0   1.38 GB   2013-10-26 17:15 
igor911 
Модератор відео


З нами з: 18.01.08
Востаннє: 26.02.21
Повідомлень: 15545

2020-05-07 20:15  
staf777, прохання при створенні Open Matte релізів додавати порівняння наповнення кадру (тут я додав сам).
Ваш часовий пояс: GMT + 2 Години

Нова тема   Відповісти