Єлена Троянська / Helen Of Troy (2003) 1080p 2xUkr/Eng | Sub Eng

Нові коментарі

Нова тема   Відповісти
Автор Повідомлення
Anonymous 







2020-05-07 03:06  
Єлена Троянська / Helen Of Troy (2003) 1080p 2xUkr/Eng | Sub Eng


Альтернативні оригінальні та українські постери:

Єлена Троянська / Helen Of Troy (2003) 1080p 2xUkr/Eng | Sub Eng
Єлена Троянська / Helen Of Troy (2003) 1080p 2xUkr/Eng | Sub Eng
Єлена Троянська / Helen Of Troy (2003) 1080p 2xUkr/Eng | Sub Eng




Жанр: пригодницький, драма, романтичний, бойовик
Країна: США



Кінокомпанія: Fuel Entertainment
Режисер: Джон Кент Харрісон / John Kent Harrison
Сценаристи: Ронні Керн / Ronni Kern, Гомер / Homer
Композитор: Джоел Голдсміт / Joel Goldsmith
Актори: Сієнна Гіллорі / Sienna Guillory, Меттью Марсден / Matthew Marsden, Руфус Сьюел / Rufus Sewell, Стеллан Скарсгард / Stellan Skarsgard, Емілія Фокс / Emilia Fox, Маріам д'Або / Maryam d'Abo

Сюжет:
«Єлена Троянська» - телефільм за мотивами поеми Гомера «Іліада» про Троянську війну.
Дружина царя Спарти Менелая, на ім'я Єлена, пристрасно покохала прекрасного троянського принца Паріса. Закохані тікають у Трою під захист батька Паріса, Царя Пріама. Але рідний брат зрадженого дружиною Менелая, безжальний Агаменон, разом з величезною армією Спарти відправляється за Єленою до величних стін Трої. Після десятирічної облоги грекам вдається проникнути в місто за допомогою знаменитого Троянського Коня: починається епохальна битва, яка вирішить долю двох імперій...


Тривалість: 02:54:40
Якість: 1080p
Відео:
Кодек:
Розмір кадру: 1920 x 1080
Бітрейт: 11 Мбіт/с

Аудіо #1:
Мова: українська | (завантажити)
Переклад: багатоголосий закадровий [ТРК Україна]

Кодек: 5.1
Бітрейт: 448 Кбіт/с

Аудіо #2:
Мова: українська | (завантажити)
Переклад: багатоголосий закадровий [Інтер]

Кодек: 5.1
Бітрейт: 448 Кбіт/с

Аудіо #3:
Мова: англійська
Переклад: Оригінал
Кодек: 5.1
Бітрейт: 1509 Кбіт/с

Субтитри:
Мова: англійська | Повні
Тип: програмні (м'які)
Формат: *.srt

Info


General
Unique ID : 14624418780931185765323825603118283050 (0xB008F83CE42A9159C761204957EB92A)
Format :
Format version : Version 4
File size : 16.4 GiB
Duration : 2 h 54 min
Overall bit rate : 13.4 Mb/s
Movie name : Helen Of Troy (2003) 1080p [2xUkrEng][SubEng] [Hurtom]
Encoded date : UTC 2020-05-06 23:50:36
Writing application : v46.0.0 ('No Deeper Escape') 64-bit
Writing library : libebml v1.3.10 + v1.5.2
Attachments : poster_ukr.jpg / poster_ukr2.jpg / poster_eng.jpg

Video
ID : 1
Format : AVC
Format/Info : Advanced Video Codec
Format profile : [email protected]
Format settings : CABAC / 4 Ref Frames
Format settings, CABAC : Yes
Format settings, Reference fra : 4 frames
Codec ID : V_MPEG4/ISO/AVC
Duration : 2 h 54 min
Bit rate : 11.0 Mb/s
Width : 1 920 pixels
Height : 1 080 pixels
Display aspect ratio : 16:9
Frame rate mode : Constant
Frame rate : 23.976 (24000/1001) FPS
Color space : YUV
Chroma subsampling : 4:2:0
Bit depth : 8 bits
Scan type : Progressive
Bits/(Pixel*Frame) : 0.222
Stream size : 13.4 GiB (82%)
Title : Helen Of Troy (2003) 1080p
Writing library : core 155 r2901 7d0ff22
Encoding settings : cabac=1 / ref=4 / deblock=1:0:0 / analyse=0x3:0x113 / me=umh / subme=8 / psy=1 / psy_rd=1.00:0.00 / mixed_ref=1 / me_range=16 / chroma_me=1 / trellis=2 / 8x8dct=1 / cqm=0 / deadzone=21,11 / fast_pskip=0 / chroma_qp_offset=-2 / threads=12 / lookahead_threads=2 / sliced_threads=0 / nr=0 / decimate=1 / interlaced=0 / bluray_compat=0 / constrained_intra=0 / bframes=3 / b_pyramid=2 / b_adapt=1 / b_bias=0 / direct=1 / weightb=1 / open_gop=0 / weightp=2 / keyint=250 / keyint_min=23 / scenecut=40 / intra_refresh=0 / rc_lookahead=50 / rc=2pass / mbtree=1 / bitrate=11024 / ratetol=1.0 / qcomp=0.60 / qpmin=0 / qpmax=69 / qpstep=4 / cplxblur=20.0 / qblur=0.5 / ip_ratio=1.40 / aq=1:1.00
Language : English
Default : Yes
Forced : No

Audio #1
ID : 2
Format : AC-3
Format/Info : Audio Coding 3
Commercial name : Dolby Digital
Codec ID : A_AC3
Duration : 2 h 54 min
Bit rate mode : Constant
Bit rate : 448 kb/s
Channel(s) : 6 channels
Channel layout : L R C LFE Ls Rs
Sampling rate : 48.0 kHz
Frame rate : 31.250 FPS (1536 SPF)
Bit depth : 16 bits
Compression mode : Lossy
Stream size : 560 MiB (3%)
Title : MVO [ТРК Україна] 5.1 @ 448 Кбіт/с
Language : Ukrainian
Service kind : Complete Main
Default : Yes
Forced : No

Audio #2
ID : 3
Format : AC-3
Format/Info : Audio Coding 3
Commercial name : Dolby Digital
Codec ID : A_AC3
Duration : 2 h 54 min
Bit rate mode : Constant
Bit rate : 448 kb/s
Channel(s) : 6 channels
Channel layout : L R C LFE Ls Rs
Sampling rate : 48.0 kHz
Frame rate : 31.250 FPS (1536 SPF)
Bit depth : 16 bits
Compression mode : Lossy
Stream size : 560 MiB (3%)
Title : MVO [Інтер] 5.1 @ 448 Кбіт/с
Language : Ukrainian
Service kind : Complete Main
Default : No
Forced : No

Audio #3
ID : 4
Format :
Format/Info : Digital Theater Systems
Codec ID : A_DTS
Duration : 2 h 54 min
Bit rate mode : Constant
Bit rate : 1 509 kb/s
Channel(s) : 6 channels
Channel layout : C L R Ls Rs LFE
Sampling rate : 48.0 kHz
Frame rate : 93.750 FPS (512 SPF)
Bit depth : 24 bits
Compression mode : Lossy
Stream size : 1.84 GiB (11%)
Title : [Оригінал] 5.1 @ 1509 Кбіт/с
Language : English
Default : No
Forced : No

Text
ID : 5
Format : UTF-8
Codec ID : S_TEXT/UTF8
Codec ID/Info : UTF-8 Plain Text
Duration : 2 h 51 min
Bit rate : 31 b/s
Count of elements : 1320
Stream size : 38.9 KiB (0%)
Title : Повні
Language : English
Default : No
Forced : No
Скріншоти










Запис доріжки від ТРК Україна/ICTV: Bohdan237, slavik_v_z
Запис доріжки від Інтера: Lan, sando7, Tanat13
Створення українських постерів: alexander_bortnyk, Vladdrako17

Джерело: &


Срібний реліз (на рейтинг впливає 50% завантаженого)
 Трекер:    Зареєстрований   

Завантажити / скачати фільм українською



відео для новачків



 Зареєстрований:   2020-05-07 03:06
 Розмір:   16.39 GB 
 Оцінка фільму:   6.2/10 (Голосів: 5)
   
Інші релізи
   Єлена Троянська / Helen Of Troy (2003) -AVC 2xUkr/Eng Arsenfpu  2 / 0   4.77 GB   2018-03-27 13:17 
   Єлена Троянська / Helen Of Troy (2003) 2xUkr/Eng | Sub Eng Lan  1 / 0   3.45 GB   2013-04-19 19:41 
   Єлена Троянська / Helen of Troy (2003) bntkm  2 / 0   1.54 GB   2012-03-13 19:08 
schubin 
Новенький


З нами з: 07.02.17
Востаннє: 18.09.20
Повідомлень: 12

2020-07-15 10:54  
Чудовий фільм!

В файлі, нажаль, в двох місцях розсинхрон обох українських доріжок з відеорядом.

Ваш часовий пояс: GMT + 2 Години

Нова тема   Відповісти