Щоденник Роуз / The Secret Scripture (2016) AVC Ukr/Eng | Sub Eng

Нові коментарі

Нова тема   Відповісти
Автор Повідомлення
staf777 
Відео Гуртом - підтримка та поширення
Відео Гуртом - підтримка та поширення


З нами з: 16.11.16
Востаннє: 06.07.20
Повідомлень: 3829

2020-05-07 02:20  
Щоденник Роуз / The Secret Scripture (2016) AVC Ukr/Eng | Sub Eng

Щоденник Роуз / The Secret Scripture (2016) AVC Ukr/Eng | Sub Eng


Жанр: драма
Країна: Ірландія



Кінокомпанія: Irish Film Board, Apollo Media, Ferndale Films
Режисер: Джим Шерідан / Jim Sheridan
Актори: Руні Мара / Rooney Mara, Тео Джеймс / Theo James, Ейдан Тернер / Aidan Turner, Ерік Бана / Eric Bana, Джек Рейнор / Jack Reynor, Ванесса Редгрейв / Vanessa Redgrave, С'юзен Лінч / Susan Lynch, Полін Маклін / Pauline McLynn, Том Вон-Лолор / Tom Vaughan-Lawlor, Омар Шаріф мол. / Omar Sharif Jr. та інші

Сюжет:
Фільм розповідає про пацієнтку психіатричної клініки - Розанну Макналті (Руні Мара, Ванесса Редгрейв), яка перебувала в неволі так довго, що всі вже забули, що саме її туди привело. Коли в клініці з'явився новий лікар, Вільям Грін (Ерік Бана), доля загадкової пацієнтки викликала його особливий інтерес. Одного разу Грін знайшов захований щоденник Розанни. Протягом декількох десятиліть вона записувала свої спогади. У цих мемуарах – розповідь про дивовижне життя, пристрасне і трагічне кохання, а також про причину госпіталізації.


Тривалість: 01:48:56
Якість: AVC
Відео:
кодек:
розмір кадру: 1024x426
бітрейт: 1542 кб/с

Аудіо # 1:
мова: українська
переклад: багатоголосий закадровий
кодек: 2.0
бітрейт: 192 кб/с

Аудіо # 2:
мова: англійська
переклад: оригінал
кодек: 5.1
бітрейт: 448 кб/с

Субтитри:
мова: англійська
тип: програмні (м'які)
формат: *.srt
Info
General
Unique ID : 256195727412749381991365612660751527130 (0xC0BD80970C9A89AFF7B0CDD79EB6ECDA)
Complete name : G:\Фільми AVC\Драма\The Secret Scripture (2016) AVC [ukr, eng] [ViDeO_Hurtom].
Format :
Format version : Version 4
File size : 1.66 GiB
Duration : 1 h 48 min
Overall bit rate : 2 186 kb/s
Movie name : Щоденник Роуз / The Secret Scripture (2016) AVC [ukr, eng] [ViDeO_Hurtom]
Encoded date : UTC 2020-05-07 00:14:24
Writing application : v46.0.0 ('No Deeper Escape') 64-bit
Writing library : libebml v1.3.10 + v1.5.2
Cover : Yes
Attachments : cover.jpg

Video
ID : 1
Format : AVC
Format/Info : Advanced Video Codec
Format profile : [email protected]
Format settings : CABAC / 10 Ref Frames
Format settings, CABAC : Yes
Format settings, Reference : 10 frames
Codec ID : V_MPEG4/ISO/AVC
Duration : 1 h 48 min
Bit rate : 1 542 kb/s
Width : 1 024 pixels
Height : 426 pixels
Display aspect ratio : 2.40:1
Frame rate mode : Constant
Frame rate : 24.000 FPS
Color space : YUV
Chroma subsampling : 4:2:0
Bit depth : 8 bits
Scan type : Progressive
Bits/(Pixel*Frame) : 0.147
Stream size : 1.18 GiB (71%)
Writing library : core 146 r2538 121396c
Encoding settings : cabac=1 / ref=10 / deblock=1:-3:-3 / analyse=0x3:0x133 / me=umh / subme=11 / psy=1 / psy_rd=1.00:0.07 / mixed_ref=1 / me_range=48 / chroma_me=1 / trellis=2 / 8x8dct=1 / cqm=0 / deadzone=21,11 / fast_pskip=0 / chroma_qp_offset=-3 / threads=6 / lookahead_threads=1 / sliced_threads=0 / nr=0 / decimate=0 / interlaced=0 / bluray_compat=0 / constrained_intra=0 / bframes=10 / b_pyramid=2 / b_adapt=2 / b_bias=0 / direct=3 / weightb=1 / open_gop=0 / weightp=2 / keyint=240 / keyint_min=23 / scenecut=40 / intra_refresh=0 / rc_lookahead=40 / rc=2pass / mbtree=0 / bitrate=1542 / ratetol=1.0 / qcomp=0.60 / qpmin=0 / qpmax=69 / qpstep=4 / cplxblur=20.0 / qblur=0.5 / vbv_maxrate=50000 / vbv_bufsize=62500 / nal_hrd=none / filler=0 / ip_ratio=1.40 / pb_ratio=1.30 / aq=1:1.00
Language : English
Default : Yes
Forced : No

Audio #1
ID : 2
Format : AC-3
Format/Info : Audio Coding 3
Commercial name : Dolby Digital
Codec ID : A_AC3
Duration : 1 h 48 min
Bit rate mode : Constant
Bit rate : 192 kb/s
Channel(s) : 2 channels
Channel layout : L R
Sampling rate : 48.0 kHz
Frame rate : 31.250 FPS (1536 SPF)
Compression mode : Lossy
Stream size : 150 MiB (9%)
Title : , 2 ch, 192 Kbps, Українська
Language : Ukrainian
Service kind : Complete Main
Default : Yes
Forced : Yes

Audio #2
ID : 3
Format : AC-3
Format/Info : Audio Coding 3
Commercial name : Dolby Digital
Codec ID : A_AC3
Duration : 1 h 48 min
Bit rate mode : Constant
Bit rate : 448 kb/s
Channel(s) : 6 channels
Channel layout : L R C LFE Ls Rs
Sampling rate : 48.0 kHz
Frame rate : 31.250 FPS (1536 SPF)
Compression mode : Lossy
Stream size : 349 MiB (20%)
Title : , 6 ch, 448 Kbps, Original
Language : English
Service kind : Complete Main
Default : No
Forced : No

Text
ID : 4
Format : UTF-8
Codec ID : S_TEXT/UTF8
Codec ID/Info : UTF-8 Plain Text
Duration : 1 h 41 min
Bit rate : 34 b/s
Count of elements : 970
Stream size : 25.3 KiB (0%)
Language : English
Default : No
Forced : No

Menu
00:00:00.000 : en:Chapter 01
00:08:44.415 : en:Chapter 02
00:17:52.833 : en:Chapter 03
00:26:52.833 : en:Chapter 04
00:36:57.833 : en:Chapter 05
00:45:14.833 : en:Chapter 06
00:54:19.208 : en:Chapter 07
01:03:03.833 : en:Chapter 08
01:13:09.416 : en:Chapter 09
01:23:27.625 : en:Chapter 10
01:29:01.832 : en:Chapter 11
01:39:34.833 : en:Chapter 12
01:48:54.291 : en:Chapter 13


Подяка за українську доріжку AngryBirdsUA.
Джерело:
Підтримати купівлю інших фільмів можна тут.


 Трекер:    Зареєстрований   

Завантажити / скачати фільм українською



відео для новачків



 Зареєстрований:   2020-05-07 14:11
 Розмір:   1.66 GB 
 Оцінка фільму:   7.5/10 (Голосів: 11)
   
Інші релізи
staf777 
Відео Гуртом - підтримка та поширення
Відео Гуртом - підтримка та поширення


З нами з: 16.11.16
Востаннє: 06.07.20
Повідомлень: 3829

2020-05-07 03:20  
+Remux
bot 
робот


З нами з: 30.09.07
Востаннє: 26.05.05
Повідомлень: 24984

2020-05-07 14:11  
Тему перенесено з Анонси релізів до форуму Фільми


staf777

andriy_nv 
VIP


З нами з: 27.06.08
Востаннє: 06.07.20
Повідомлень: 1039

2020-05-21 18:17  
на один раз
Ваш часовий пояс: GMT + 2 Години

Нова тема   Відповісти