Сусідка [Розширена версія] / The Girl Next Door [Unrated] (2004) 1080p Ukr/Eng | Sub Eng

Нові коментарі

Нова тема   Відповісти
Автор Повідомлення
staf777 
Відео Гуртом - підтримка та поширення
Відео Гуртом - підтримка та поширення


З нами з: 16.11.16
Востаннє: 20.09.20
Повідомлень: 4023

2020-05-06 21:09  
Сусідка [Розширена версія] / The Girl Next Door [Unrated] (2004) 1080p Ukr/Eng | Sub Eng

Альтернативні та оригінальні обкладинка та постер:







Жанр: мелодрама, комедія, молодіжний
Країна: США



Кінокомпанія: Regency Enterprises, New Regency Pictures, Daybreak, Epsilon Motion Pictures
Режисер: Люк Ґрінфілд / Luke Greenfield
Актори: Еміль Хірш / Emile Hirsch, Еліша Катберт / Elisha Cuthbert, Тімоті Оліфант / Timothy Olyphant, Джеймс Рімар / James Remar, Кріс Маркет / Chris Marquette, Пол Дано / Paul Dano, Тімоті Боттомс / Timothy Bottoms, Донна Баллок / Donna Bullock, Джейкоб Янг / Jacob Young, Олівія Вайлд / Olivia Wilde та інші

Сюжет:
Старшокласник Метью, який був найкращим учнем школи, мріяв про кар'єру політика. Він навіть збирав благодійні кошти для одного талановитого учня з Камбоджі, щоб той міг приїхати навчатися до Америки. Метью був першим претендентом на отримання стипендії для вступу до коледжу. І все було б добре, якби одного разу він не помітив, що у нього з'явилася нова сусідка, невимовно вродлива 19-річна блондинка Деніель. Між ними розгорається неймовірна дружба, Метью почуває себе на сьомому небі від щастя і врешті розуміє, що закохався у неї.

Але несподівано все ускладнюється, бо виявляється, що Деніел - порнозірка...



Рейтинг MPAA: NC-17 - особи до 17 років не допускаються до перегляду - саме розширена версія має такий рейтинг, ось порівняння R та Unrated версій фільму
Вікова категорія: 18+


Тривалість: 01:49:28 [Розширена версія / Unrated]
Якість: 1080p
Відео:
кодек:
розмір кадру: 1920x1040
бітрейт: 9303 кб/с

Аудіо # 1:
мова: українська - Новий Канал
переклад: двоголосий закадровий
ролі озвучили: Юлія Перенчук та Павло Скороходько
кодек: 2.0
бітрейт: 192 кб/с
примітка: епізоди розширеної версії без українського озвучення, на них присутні форсовані субтитри

Аудіо # 2:
мова: англійська
переклад: оригінал
кодек: 5.1
бітрейт: 640 кб/с

Субтитри # 1:
мова: українська (форсовані, на неозвучені епізоди розширеної версії)
тип: програмні (м'які)
формат: *.srt

Субтитри # 2:
мова: англійська
тип: програмні (м'які)
формат: *.
Info
Код:
General
Unique ID                   : 331189079409757912186896906461590749359 (0xF928B24FB84CE006C66F6A74F58680AF)
Complete name               : D:\Комедія\The Girl Next Door [Unrated] (2004) 1080p [UKR_ENG] [Hurtom].
Format                      :
Format version              : Version 4
File size                   : 7.74 GiB
Duration                    : 1 h 49 min
Overall bit rate            : 10.1 Mb/s
Movie name                  : Сусідка [Розширена версія] / The Girl Next Door [Unrated] (2004) 1080p [UKR_ENG] [Hurtom]
Encoded date                : UTC 2020-05-06 18:03:37
Writing application         : v46.0.0 ('No Deeper Escape') 64-bit
Writing library             : libebml v1.3.10 + v1.5.2
Cover                       : Yes
Attachments                 : cover.jpg

Video
ID                          : 1
Format                      : AVC
Format/Info                 : Advanced Video Codec
Format profile              : [email protected]
Format settings             : CABAC / 4 Ref Frames
Format settings, CABAC      : Yes
Format settings, Reference  : 4 frames
Codec ID                    : V_MPEG4/ISO/AVC
Duration                    : 1 h 49 min
Bit rate                    : 9 303 kb/s
Width                       : 1 920 pixels
Height                      : 1 040 pixels
Display aspect ratio        : 1.85:1
Frame rate mode             : Constant
Frame rate                  : 23.976 (24000/1001) FPS
Color space                 : YUV
Chroma subsampling          : 4:2:0
Bit depth                   : 8 bits
Scan type                   : Progressive
Bits/(Pixel*Frame)          : 0.194
Stream size                 : 7.11 GiB (92%)
Writing library             : core 135 r2345 f0c1c53
Encoding settings           : cabac=1 / ref=4 / deblock=1:-2:-1 / analyse=0x3:0x113 / me=umh / subme=11 / psy=1 / psy_rd=1.00:0.00 / mixed_ref=1 / me_range=64 / chroma_me=1 / trellis=2 / 8x8dct=1 / cqm=0 / deadzone=21,11 / fast_pskip=0 / chroma_qp_offset=-2 / threads=12 / lookahead_threads=3 / sliced_threads=0 / nr=0 / decimate=1 / interlaced=0 / bluray_compat=0 / constrained_intra=0 / bframes=12 / b_pyramid=2 / b_adapt=2 / b_bias=0 / direct=3 / weightb=1 / open_gop=0 / weightp=2 / keyint=240 / keyint_min=23 / scenecut=40 / intra_refresh=0 / rc_lookahead=60 / rc=2pass / mbtree=1 / bitrate=9303 / ratetol=2.0 / qcomp=0.60 / qpmin=0 / qpmax=51 / qpstep=4 / cplxblur=20.0 / qblur=0.5 / ip_ratio=1.40 / aq=1:1.00
Language                    : English
Default                     : Yes
Forced                      : No

Audio #1
ID                          : 2
Format                      : AC-3
Format/Info                 : Audio Coding 3
Commercial name             : Dolby Digital
Codec ID                    : A_AC3
Duration                    : 1 h 49 min
Bit rate mode               : Constant
Bit rate                    : 192 kb/s
Channel(s)                  : 2 channels
Channel layout              : L R
Sampling rate               : 48.0 kHz
Frame rate                  : 31.250 FPS (1536 SPF)
Compression mode            : Lossy
Stream size                 : 150 MiB (2%)
Title                       : Новий Канал
Language                    : Ukrainian
Service kind                : Complete Main
Default                     : Yes
Forced                      : Yes

Audio #2
ID                          : 3
Format                      : AC-3
Format/Info                 : Audio Coding 3
Commercial name             : Dolby Digital
Codec ID                    : A_AC3
Duration                    : 1 h 49 min
Bit rate mode               : Constant
Bit rate                    : 640 kb/s
Channel(s)                  : 6 channels
Channel layout              : L R C LFE Ls Rs
Sampling rate               : 48.0 kHz
Frame rate                  : 31.250 FPS (1536 SPF)
Compression mode            : Lossy
Stream size                 : 501 MiB (6%)
Language                    : English
Service kind                : Complete Main
Default                     : No
Forced                      : No

Text #1
ID                          : 4
Format                      : UTF-8
Codec ID                    : S_TEXT/UTF8
Codec ID/Info               : UTF-8 Plain Text
Duration                    : 51 min 53 s
Bit rate                    : 1 b/s
Count of elements           : 12
Stream size                 : 605 Bytes (0%)
Title                       : (форсовані, на неозвучені епізоди розширеної версії)
Language                    : Ukrainian
Default                     : Yes
Forced                      : Yes

Text #2
ID                          : 5
Format                      :
Codec ID                    : S_TEXT/
Codec ID/Info               : Advanced Sub Station Alpha
Duration                    : 1 h 43 min
Bit rate                    : 88 b/s
Count of elements           : 1193
Compression mode            : Lossless
Stream size                 : 66.8 KiB (0%)
Language                    : English
Default                     : No
Forced                      : No

Menu
00:00:00.000                : :Chapter 01
00:03:14.819                : :Chapter 02
00:04:54.585                : :Chapter 03
00:07:25.153                : :Chapter 04
00:10:07.189                : :Chapter 05
00:15:11.076                : :Chapter 06
00:21:10.185                : :Chapter 07
00:25:47.254                : :Chapter 08
00:29:47.869                : :Chapter 09
00:34:42.246                : :Chapter 10
00:38:41.277                : :Chapter 11
00:45:05.869                : :Chapter 12
00:49:22.793                : :Chapter 13
00:55:30.076                : :Chapter 14
00:58:45.772                : :Chapter 15
01:00:52.023                : :Chapter 16
01:05:16.454                : :Chapter 17
01:08:33.400                : :Chapter 18
01:11:21.151                : :Chapter 19
01:15:03.373                : :Chapter 20
01:18:32.249                : :Chapter 21
01:20:56.518                : :Chapter 22
01:23:44.227                : :Chapter 23
01:27:14.103                : :Chapter 24
01:33:22.888                : :Chapter 25
01:35:40.901                : :Chapter 26
01:40:31.275                : :Chapter 27
01:43:49.389                : :Chapter 28

Джерела та подяки:
ріп відео, оригінальні звук та субтитри - kinozal; українська доріжка - voin747 - синхронізація, ratbol - запис з ТБ; українські форсовані субтитри - igor911, українські обкладинка та постери - d1mma, dimon-2018 (всі - Гуртом).

Особиста оцінка: 7 - мені сподобалося


ЗАЛИШАЙТЕСЬ ЯКОМОГА ДОВШЕ НА РОЗДАЧІ!

СКАЧАВ САМ - ДАЙ СКАЧАТИ ІНШИМ


Срібний реліз (на рейтинг впливає 50% завантаженого)
 Трекер:    Зареєстрований   

Завантажити / скачати фільм українською



відео для новачків



 Зареєстрований:   2020-05-06 22:37
 Розмір:   7.74 GB 
 Оцінка фільму:   8.7/10 (Голосів: 9)
   
bot 
робот


З нами з: 30.09.07
Востаннє: 26.05.05
Повідомлень: 25548

2020-05-06 22:37  
Тему перенесено з Анонси релізів до форуму Фільми в HD


staf777

omm 
Відео Гуртом - фільмокрай
Відео Гуртом - фільмокрай


З нами з: 12.06.12
Востаннє: 20.09.20
Повідомлень: 2422

2020-05-10 19:23  
Файна молодіжна комедія.. Головна героїня - щось із чимось

7 з 10

Ваш часовий пояс: GMT + 2 Години

Нова тема   Відповісти