Санта на продаж / Rare Exports (2010) 1080p Ukr/Fin | Sub Ukr/Eng/Fin

Нові коментарі

Нова тема   Відповісти
Автор Повідомлення
Anonymous 







2020-05-06 19:23  
Санта на продаж / Rare Exports (2010) 1080p Ukr/Fin | Sub Ukr/Eng/Fin


Альтернативні українські та альтернативні постери:

Санта на продаж / Rare Exports (2010) 1080p Ukr/Fin | Sub Ukr/Eng/Fin
Санта на продаж / Rare Exports (2010) 1080p Ukr/Fin | Sub Ukr/Eng/Fin




Жанр: фентезі, бойовик, комедія
Країна: Швеція, Фінляндія, Франція, Норвегія



Кінокомпанія: Agnès b. Productions & Davaj Film & Cinet
Режисер: Ялмарі Геландер / Jalmari Helander
Сценаристи: Ялмарі Геландер / Jalmari Helander, Ялмарі, Юсо Геландер / Juuso Helander
Композитори: Юрі Сеппа / Juri Seppä, Міска Сеппа / Miska Seppä
Актори: Томмі Корпела / Tommi Korpela, Рауно Джавонен / Rauno Juvonen, Пер Крістіан Еллефсен / Per Christian Ellefsen, Ілмарі Ярвенпаа / Ilmari Järvenpää, Пітер Якобі / Peeter Jakobi, Джонатан Хатчінгс / Jonathan Hutchings
Бюджет: 1 948 000 $

Сюжет:
Це фільм для тих, хто думає, що він вже не вірить в Санта Клауса. Далеко в засніжених горах Швеції, в ущелині на глибині 486 метрів виявили знахідку, надійно укриту від всіх. Тепер прийшов час відкрити її світу.

Тривалість: 01:22:30
Якість: 1080p

Відео:
Кодек:
Розмір кадру: 1914 x 816
Бітрейт: 18,3 Мбіт/с

Аудіо #1:
мова: українська
переклад: багатоголосий закадровий [Інтер]

кодек: 5.1
бітрейт: 448 Кбіт/с

Аудіо #2:
мова: фінська
переклад: оригінал
кодек: 5.1
бітрейт: 1509 Кбіт/с

Субтитри #1:
мова: українська | повні | (завантажити)
тип: програмні (м'які)
формат: *.srt

Субтитри #2:
мова: англійська | повні | (завантажити)
тип: програмні (м'які)
формат: *.srt

Субтитри #3:
мова: фінська | повні
тип: програмні (м'які)
формат: *.srt

Info


General
Unique ID : 333946969711532515835549346294008810985 (0xFB3BD8CD28C4D899CA9B12003C1E8DE9)
Format :
Format version : Version 4
File size : 11.6 GiB
Duration : 1 h 22 min
Overall bit rate : 20.0 Mb/s
Movie name : Rare Exports (2010) 1080p [UkrFin][SubUkrEngFin] [Hurtom]
Encoded date : UTC 2020-05-06 13:51:24
Writing application : v46.0.0 ('No Deeper Escape') 64-bit
Writing library : libebml v1.3.10 + v1.5.2
Attachments : poster_ukr1.jpg / poster_ukr2.jpg / poster_eng.jpg

Video
ID : 1
Format : AVC
Format/Info : Advanced Video Codec
Format profile : [email protected]
Format settings : CABAC / 5 Ref Frames
Format settings, CABAC : Yes
Format settings, Reference fra : 5 frames
Codec ID : V_MPEG4/ISO/AVC
Duration : 1 h 22 min
Bit rate : 18.3 Mb/s
Width : 1 914 pixels
Height : 816 pixels
Display aspect ratio : 2.35:1
Frame rate mode : Constant
Frame rate : 23.976 (24000/1001) FPS
Color space : YUV
Chroma subsampling : 4:2:0
Bit depth : 8 bits
Scan type : Progressive
Bits/(Pixel*Frame) : 0.490
Stream size : 10.6 GiB (91%)
Title : Rare Exports (2010) 1080p
Writing library : core 157 r2935 545de2f
Encoding settings : cabac=1 / ref=5 / deblock=1:-3:-3 / analyse=0x3:0x133 / me=umh / subme=10 / psy=1 / psy_rd=1.00:0.00 / mixed_ref=1 / me_range=24 / chroma_me=1 / trellis=2 / 8x8dct=1 / cqm=0 / deadzone=21,11 / fast_pskip=0 / chroma_qp_offset=-2 / threads=18 / lookahead_threads=3 / sliced_threads=0 / nr=0 / decimate=1 / interlaced=0 / bluray_compat=0 / constrained_intra=0 / bframes=8 / b_pyramid=2 / b_adapt=2 / b_bias=0 / direct=3 / weightb=1 / open_gop=0 / weightp=2 / keyint=240 / keyint_min=24 / scenecut=40 / intra_refresh=0 / rc_lookahead=60 / rc=crf / mbtree=1 / crf=12.0 / qcomp=0.60 / qpmin=0 / qpmax=69 / qpstep=4 / vbv_maxrate=62500 / vbv_bufsize=78125 / crf_max=0.0 / nal_hrd=none / filler=0 / ip_ratio=1.40 / aq=1:1.00
Language : Finnish
Default : Yes
Forced : No
Color range : Limited
Color primaries : BT.709
Transfer characteristics : BT.709
Matrix coefficients : BT.709

Audio #1
ID : 2
Format : AC-3
Format/Info : Audio Coding 3
Commercial name : Dolby Digital
Codec ID : A_AC3
Duration : 1 h 22 min
Bit rate mode : Constant
Bit rate : 192 kb/s
Channel(s) : 2 channels
Channel layout : L R
Sampling rate : 48.0 kHz
Frame rate : 31.250 FPS (1536 SPF)
Bit depth : 16 bits
Compression mode : Lossy
Stream size : 113 MiB (1%)
Title : DVO [Інтер] 2.0 @ 192 Кбіт/с
Language : Ukrainian
Service kind : Complete Main
Default : Yes
Forced : No

Audio #2
ID : 3
Format : ES XXCH
Format/Info : Digital Theater Systems
Commercial name : -ES Discrete
Codec ID : A_DTS
Duration : 1 h 22 min
Bit rate mode : Constant
Bit rate : 1 509 kb/s
Channel(s) : 6 channels
Channel(s)_Original : 7 channels
ChannelLayout_Original : C L R Ls Rs Cs LFE
Sampling rate : 48.0 kHz
Frame rate : 93.750 FPS (512 SPF)
Bit depth : 24 bits
Compression mode : Lossy
Stream size : 890 MiB (8%)
Title : [Оригінал] 5.1 @ 1509 Кбіт/с
Language : Finnish
Default : No
Forced : No

Text #1
ID : 4
Format : UTF-8
Codec ID : S_TEXT/UTF8
Codec ID/Info : UTF-8 Plain Text
Duration : 1 h 15 min
Bit rate : 47 b/s
Count of elements : 552
Stream size : 26.3 KiB (0%)
Title : Повні
Language : Ukrainian
Default : No
Forced : No

Text #2
ID : 5
Format : UTF-8
Codec ID : S_TEXT/UTF8
Codec ID/Info : UTF-8 Plain Text
Duration : 1 h 15 min
Bit rate : 22 b/s
Count of elements : 453
Stream size : 12.3 KiB (0%)
Title : Повні
Language : English
Default : No
Forced : No

Text #3
ID : 6
Format : UTF-8
Codec ID : S_TEXT/UTF8
Codec ID/Info : UTF-8 Plain Text
Duration : 1 h 21 min
Bit rate : 27 b/s
Count of elements : 477
Stream size : 16.6 KiB (0%)
Title : Повні
Language : Finnish
Default : No
Forced : No

Menu
00:00:00.000 : :00:00:00.000
00:05:43.844 : :00:06:00.318
00:12:30.250 : :00:10:25.375
00:15:15.915 : :00:15:29.345
00:19:03.142 : :00:19:16.530
00:24:27.466 : :00:22:16.293
00:28:51.230 : :00:28:23.368
00:44:14.652 : :00:34:11.633
00:48:29.907 : :00:39:31.953
00:53:12.690 : :00:44:51.272
00:59:53.590 : :00:47:07.533
01:16:15.571 : :00:51:38.304
Скріншоти








Наданий сирий звук: sando7
Зведення звуку: Breniak
Постер: igrik09

Джерело:


 Трекер:    Зареєстрований   

Завантажити / скачати фільм українською



відео для новачків



 Зареєстрований:   2020-05-06 19:23
 Розмір:   11.55 GB 
 Оцінка фільму:   9.5/10 (Голосів: 2)
   
Інші релізи
Ваш часовий пояс: GMT + 2 Години

Нова тема   Відповісти