Роботи-пожежники / Fire Robo (Сезон 1) (2016) 1080p

Нові коментарі

Нова тема   Відповісти
Автор Повідомлення
sergiyko.5 
Забанено
Забанено


З нами з: 25.02.16
Востаннє: 29.10.20
Повідомлень: 3648

2020-05-06 13:51  


Роботи-пожежники / Fire Robo (Сезон 1) (2016) 1080p


Роботи-пожежники / Fire Robo (Сезон 1) (2016) 1080p

Жанр: Комедії, Пригоди, Мультсеріали
Країна: Південна Корея
Режисер: Сонбук Лі

Сюжет:
Втративши під час пожежі батьків, юна Сена разом зі своїм дідусем і двома відважними друзями приймається за створення команди роботів-пожежників, назвавши свій загін FIREROBO. Роботи, оснащені спеціальними вогнетривкими костюмами, стають справжнім порятунком для всіх тих, хто потрапив у складну ситуацію.


Тривалість: 1 серія: 12:22 (цілком серій: 26 з 26)
Якість:

Відео: кодек: розмір кадру: 1920 х 1080 бітрейт: 5100 кб/с
Аудіо: мова: українська переклад: професійний дубльований кодек: 2.0 бітрейт: 192 кб/с
Озвучення:

Додаткова інформація: напис назви серії у відео москальською.
Перелік серій
01.The Master of the Phoenix
02.Move Out! Fire Robo
03.Flaming Hot Hide-n-Seek
04.Sena`s Past
05.Rescuing a Crush
06.Ian is Inactivated
07.Elepfant on the Loose
08.Calling Wolf
09.Runaway Train
10.I Love You, Dad
11.The Moving Haunted House
12.A Special Visitor
13.A True-blue Firefighter
14.A Rocky Class Picnic
15.Fire Robo under Fire
16.A Fast-paced Fright
17.Romeo and Juliet
18.The Phoenix Arises
19.A Foggy Bridge
20.A Fiery Dance
21.Museum Mayhem
22.Heroes in the Tunnel
23.Fire in the Hole
24.K`s Revenge
25.Fire Robo Falls into a Trap
26.Battle Magma X
Про файл:
General
Unique ID : 231090037995829424152960368531407177421 (0xADDA5288F9A49F7780F52A86C15D06CD)
Complete name : D:\Documents\Torrents\MULTSER_2\Fire Robo S01 1080p \S01E01.The Master of the Phoenix.1080p..
Format :
Format version : Version 4
File size : 447 MiB
Duration : 12 min 20 s
Overall bit rate : 5 071 kb/s
Movie name : Fire Robo S01 1080p by sergiyko
Encoded date : UTC 2020-05-06 10:11:00
Writing application : v46.0.0 ('No Deeper Escape') 64-bit
Writing library : libebml v1.3.10 + v1.5.2

Video
ID : 1
Format : AVC
Format/Info : Advanced Video Codec
Format profile : [email protected]
Format settings : CABAC / 4 Ref Frames
Format settings, CABAC : Yes
Format settings, Reference : 4 frames
Codec ID : V_MPEG4/ISO/AVC
Duration : 12 min 20 s
Bit rate : 4 877 kb/s
Width : 1 920 pixels
Height : 1 080 pixels
Display aspect ratio : 16:9
Frame rate mode : Constant
Frame rate : 23.976 (24000/1001) FPS
Color space : YUV
Chroma subsampling : 4:2:0
Bit depth : 8 bits
Scan type : Progressive
Bits/(Pixel*Frame) : 0.098
Stream size : 430 MiB (96%)
Title : S01E01.The Master of the Phoenix
Language : English
Default : Yes
Forced : No

Audio
ID : 2
Format : AC-3
Format/Info : Audio Coding 3
Commercial name : Dolby Digital
Codec ID : A_AC3
Duration : 12 min 20 s
Bit rate mode : Constant
Bit rate : 192 kb/s
Channel(s) : 2 channels
Channel layout : L R
Sampling rate : 48.0 kHz
Frame rate : 31.250 FPS (1536 SPF)
Compression mode : Lossy
Stream size : 16.9 MiB (4%)
Title : DUB | Піксель
Language : Ukrainian
Service kind : Complete Main
Default : Yes
Forced : No
Скріншоти:


Запис/зведення: sergiyko


Бронзовий реліз (на рейтинг впливає 75% завантаженого)
 Трекер:    Зареєстрований   

Завантажити / скачати мультфільм українською



відео для новачків



 Зареєстрований:   2020-05-08 14:14
 Розмір:   11.6 GB 
 Оцінка мультсеріалу:   10/10 (Голосів: 4)
   
xslim 
Відео Гуртом - фільмокрай
Відео Гуртом - фільмокрай


З нами з: 05.03.09
Востаннє: 19.04.21
Повідомлень: 1417

2020-05-06 22:36  
sergiyko.5 
Забанено
Забанено


З нами з: 25.02.16
Востаннє: 29.10.20
Повідомлень: 3648

2020-05-06 23:02  
Дякую. 6 та 7 травня запишу відсутні серії, зведу і додам в торент.
sergiyko.5 
Забанено
Забанено


З нами з: 25.02.16
Востаннє: 29.10.20
Повідомлень: 3648

2020-05-08 14:15  
Торент оновлено. Додав відсутні серії. Сезон повний.

Приємного перегляду!

FXClever 
Новенький


З нами з: 09.05.17
Востаннє: 17.04.21
Повідомлень: 1

2020-05-09 19:58  
Підкажіть хтось, яким софтом можно ужати відео до 720р? Чи може цей мульт є в такому форматі?
Ваш часовий пояс: GMT + 2 Години

Нова тема   Відповісти