Прянощі та пристрасті / The Hundred-Foot Journey (2014) 1080p Ukr/Eng | Sub Eng

Нові коментарі

Нова тема   Відповісти
Автор Повідомлення
staf777 
Відео Гуртом - підтримка та поширення
Відео Гуртом - підтримка та поширення


З нами з: 16.11.16
Востаннє: 22.09.20
Повідомлень: 4027

2020-05-06 05:12  
Прянощі та пристрасті / The Hundred-Foot Journey (2014) 1080p Ukr/Eng | Sub Eng

Прянощі та пристрасті / The Hundred-Foot Journey (2014) 1080p Ukr/Eng | Sub Eng
Альтернативний постер:



Жанр: комедія, драма
Країна: Індія, ОАЕ, США



Кінокомпанія: Amblin Entertainment, DreamWorks Studios, Harpo Films
Режисер: Лассе Галлстрем
Актори: Гелен Мірен, Ом Пурі, Маніш Даял, Шарлота Ле Бон, Аміт Шах, Фарзана Дуа Елахе, Діллон Мітра

Сюжет:
Родина індійських емігрантів, яких доля закинула в маленьке містечко в Провансі, вирішує відкрити кав'ярню зі східною кухнею... прямо навпроти відомого на весь округ ресторану "Плакуча верба", бастіону французьких кулінарних традицій, господиня якого, Мадам Малорі, більше за все на світі пишається тим, що її заклад удостоєно зірки в каталозі "Мішлен". Спочатку Мадам Малорі не приховує своєї огиди галасливими сусідами і їхніми екзотичними звичками, але поступово війна за клієнтів між двома ресторанами змінюється хитким перемир'ям, особливо, коли з'ясовується, що юний кухар-емігрант Гассан має досконалий смак, і рецепти французької кухні підкорюються йому так само легко, як таємниці індійських прянощів.


Тривалість: 02:02:29
Якість: 1080p
Відео:
кодек:
розмір кадру: 1920x804
бітрейт: 12.4 Мб/с

Аудіо # 1:
мова: українська
переклад: професійний дубльований
кодек: 2.0
бітрейт: 192 кб/с

Аудіо # 2:
мова: англійська
переклад: оригінал
кодек: 5.1
бітрейт: 1509 кб/с

Джерело озвучення:


Субтитри:
мова: англійська
тип: програмні (м'які)
формат: *.srt
Info
General
Unique ID : 153857625161354737797148458453651893182 (0x73BFE6975BEB8914315236FA28C72BBE)
Complete name : E:\Комедія\The Hundred-Foot Journey (2014) 1080p [UKR_ENG] [Hurtom].
Format :
Format version : Version 4
File size : 12.1 GiB
Duration : 2 h 2 min
Overall bit rate : 14.1 Mb/s
Movie name : Прянощі та пристрасті / The Hundred-Foot Journey (2014) 1080p [UKR_ENG] [Hurtom]
Encoded date : UTC 2020-05-06 10:17:00
Writing application : v46.0.0 ('No Deeper Escape') 64-bit
Writing library : libebml v1.3.10 + v1.5.2
Cover : Yes
Attachments : cover.jpg

Video
ID : 1
Format : AVC
Format/Info : Advanced Video Codec
Format profile : [email protected]
Format settings : CABAC / 5 Ref Frames
Format settings, CABAC : Yes
Format settings, Reference : 5 frames
Codec ID : V_MPEG4/ISO/AVC
Duration : 2 h 2 min
Bit rate : 12.4 Mb/s
Width : 1 920 pixels
Height : 804 pixels
Display aspect ratio : 2.40:1
Frame rate mode : Constant
Frame rate : 23.976 (24000/1001) FPS
Color space : YUV
Chroma subsampling : 4:2:0
Bit depth : 8 bits
Scan type : Progressive
Bits/(Pixel*Frame) : 0.336
Stream size : 10.6 GiB (88%)
Writing library : core 142 r2431kMod ac76440
Encoding settings : cabac=1 / ref=5 / deblock=1:-3:-3 / analyse=0x3:0x133 / me=umh / subme=10 / psy=1 / fade_compensate=0.00 / psy_rd=1.05:0.00 / mixed_ref=1 / me_range=24 / chroma_me=1 / trellis=2 / 8x8dct=1 / cqm=0 / deadzone=21,11 / fast_pskip=0 / chroma_qp_offset=-2 / threads=24 / lookahead_threads=4 / sliced_threads=0 / nr=0 / decimate=0 / interlaced=0 / bluray_compat=0 / constrained_intra=0 / fgo=0 / bframes=8 / b_pyramid=2 / b_adapt=2 / b_bias=0 / direct=3 / weightb=1 / open_gop=0 / weightp=2 / keyint=250 / keyint_min=23 / scenecut=40 / intra_refresh=0 / rc=crf / mbtree=0 / crf=19.0000 / qcomp=0.70 / qpmin=0 / qpmax=69 / qpstep=4 / ip_ratio=1.25 / pb_ratio=1.15 / aq=1:0.80
Language : English
Default : Yes
Forced : No

Audio #1
ID : 2
Format : AC-3
Format/Info : Audio Coding 3
Commercial name : Dolby Digital
Codec ID : A_AC3
Duration : 2 h 2 min
Bit rate mode : Constant
Bit rate : 192 kb/s
Channel(s) : 2 channels
Channel layout : L R
Sampling rate : 48.0 kHz
Frame rate : 31.250 FPS (1536 SPF)
Compression mode : Lossy
Stream size : 168 MiB (1%)
Title : [UA-DUB-TET]
Language : Ukrainian
Service kind : Complete Main
Default : Yes
Forced : Yes

Audio #2
ID : 3
Format :
Format/Info : Digital Theater Systems
Codec ID : A_DTS
Duration : 2 h 2 min
Bit rate mode : Constant
Bit rate : 1 509 kb/s
Channel(s) : 6 channels
Channel layout : C L R Ls Rs LFE
Sampling rate : 48.0 kHz
Frame rate : 93.750 FPS (512 SPF)
Bit depth : 24 bits
Compression mode : Lossy
Stream size : 1.29 GiB (11%)
Language : English
Default : No
Forced : No

Text
ID : 4
Format : UTF-8
Codec ID : S_TEXT/UTF8
Codec ID/Info : UTF-8 Plain Text
Duration : 1 h 53 min
Bit rate : 48 b/s
Count of elements : 1536
Stream size : 40.0 KiB (0%)
Language : English
Default : No
Forced : No

Menu
00:00:00.000 : en:00:00:00.000
00:07:36.790 : en:00:07:36.790
00:15:05.154 : en:00:15:05.154
00:20:56.464 : en:00:20:56.464
00:27:01.912 : en:00:27:01.912
00:33:27.464 : en:00:33:27.464
00:41:12.011 : en:00:41:12.011
00:48:12.264 : en:00:48:12.264
00:55:11.934 : en:00:55:11.934
01:02:18.526 : en:01:02:18.526
01:08:58.676 : en:01:08:58.676
01:19:08.953 : en:01:19:08.953
01:28:00.734 : en:01:28:00.734
01:35:53.164 : en:01:35:53.164
01:41:47.393 : en:01:41:47.393
01:47:40.162 : en:01:47:40.162
01:51:18.005 : en:01:51:18.005
01:54:39.247 : en:01:54:39.247


Дякую пану krigg070 за запис з ТБ та пану Arsenfpu за синхронізацію.
Джерело: &
Особиста оцінка: 0 - не дивився
Прянощі та пристрасті / The Hundred-Foot Journey (2014) 1080p Ukr/Eng | Sub Eng

Прянощі та пристрасті / The Hundred-Foot Journey (2014) 1080p Ukr/Eng | Sub Eng


 Трекер:    Зареєстрований   

Завантажити / скачати фільм українською



відео для новачків



 Зареєстрований:   2020-05-06 13:48
 Розмір:   12.11 GB 
 Оцінка фільму:   9.5/10 (Голосів: 4)
   
IRONHIDE 
VIP


З нами з: 06.08.10
Востаннє: 22.09.20
Повідомлень: 279

2020-05-06 08:40  
8/10
bot 
робот


З нами з: 30.09.07
Востаннє: 26.05.05
Повідомлень: 25564

2020-05-06 13:48  
Тему перенесено з Анонси релізів до форуму Фільми в HD


staf777

Ваш часовий пояс: GMT + 2 Години

Нова тема   Відповісти