Це кляте серце / Dieses bescheuerte Herz (2017) Remux 1080p Ukr/Ger | Sub Ger

Нові коментарі

Нова тема   Відповісти
Автор Повідомлення
staf777 
Відео Гуртом - підтримка та поширення
Відео Гуртом - підтримка та поширення


З нами з: 16.11.16
Востаннє: 29.09.20
Повідомлень: 4069

2020-05-06 00:23  
Це кляте серце / Dieses bescheuerte Herz (2017) Remux 1080p Ukr/Ger | Sub Ger

Це кляте серце / Dieses bescheuerte Herz (2017) Remux 1080p Ukr/Ger | Sub Ger


Жанр: драма, комедія
Країна: Німеччина



Кінокомпанія: Constantin Film Produktion
Режисер: Марк Ротемунд
Актори: Еліас ЕмБарек, Філіп Шварц, Надіна Вріц, Уве Пройсс, Ліза Біттер, Юрген Тонкель, Теша Мун Кріг, Карін Талер, Софія Шобер, Себастьян Герольд та інші

Сюжет:
Усе своє життя 30-річний Ленні вештався без діла та витрачав зароблені батьком гроші. Коли терпінню батька прийшов кінець, він дав синові завдання – доглядати 15-річного юнака із хворим серцем. Його звати Деніел і через вроджений порок серця лікарі кажуть, що йому залишилось жити не більше року. Ленні, який звик усе сприймати легко та з гумором, тепер увесь свій час проводить з Деніелом, якому не до жартів. Спілкування, що спершу було вимушеним, для обох стало необхідним ковтком повітря та уроком як потрібно відноситися до свого життя.


Тривалість: 01:46:21
Якість: Remux 1080p
Відео:
кодек:
розмір кадру: 1920x1080
бітрейт: 26,8 Mб/с

Аудіо # 1:
мова: українська
переклад: багатоголосий закадровий
кодек: 2.0 [стерео]
бітрейт: 192 кб/с

Аудіо # 2:
мова: німецька
переклад: оригінал
кодек: -HD HRA 5.1
бітрейт: 2046 кб/с

Субтитри:
мова: німецька
тип: пререндерні
формат: pgs
Info
General
Unique ID : 141871216940611727451616489092275339456 (0x6ABB6709EDE2AF83B882A442698580C0)
Complete name : F:\Фільми в HD\Комедія\Dieses bescheuerte Herz (2017) Remux 1080p [UKR][GER][Hurtom].
Format :
Format version : Version 4
File size : 21.6 GiB
Duration : 1 h 46 min
Overall bit rate mode : Variable
Overall bit rate : 29.0 Mb/s
Movie name : Це кляте серце / Dieses bescheuerte Herz (2017) Remux 1080p [UKR][GER][Hurtom]
Encoded date : UTC 2020-05-06 13:34:44
Writing application : v46.0.0 ('No Deeper Escape') 64-bit
Writing library : libebml v1.3.10 + v1.5.2
Cover : Yes
Attachments : cover.jpg

Video
ID : 1
ID in the original source m : 4113 (0x1011)
Format : AVC
Format/Info : Advanced Video Codec
Format profile : [email protected]
Format settings : CABAC / 4 Ref Frames
Format settings, CABAC : Yes
Format settings, Reference : 4 frames
Codec ID : V_MPEG4/ISO/AVC
Duration : 1 h 46 min
Bit rate mode : Variable
Bit rate : 26.8 Mb/s
Maximum bit rate : 35.0 Mb/s
Width : 1 920 pixels
Height : 1 080 pixels
Display aspect ratio : 16:9
Frame rate mode : Constant
Frame rate : 24.000 FPS
Color space : YUV
Chroma subsampling : 4:2:0
Bit depth : 8 bits
Scan type : Progressive
Bits/(Pixel*Frame) : 0.538
Stream size : 19.9 GiB (92%)
Default : Yes
Forced : No
Original source medium : Blu-ray

Audio #1
ID : 2
Format : AC-3
Format/Info : Audio Coding 3
Commercial name : Dolby Digital
Codec ID : A_AC3
Duration : 1 h 46 min
Bit rate mode : Constant
Bit rate : 192 kb/s
Channel(s) : 2 channels
Channel layout : L R
Sampling rate : 48.0 kHz
Frame rate : 31.250 FPS (1536 SPF)
Compression mode : Lossy
Stream size : 146 MiB (1%)
Title : [UKR-MVO]
Language : Ukrainian
Service kind : Complete Main
Default : Yes
Forced : Yes

Audio #2
ID : 3
ID in the original source m : 4353 (0x1101)
Format : XBR
Format/Info : Digital Theater Systems
Commercial name : -HD High Resolution Audio
Codec ID : A_DTS
Duration : 1 h 46 min
Bit rate mode : Constant
Bit rate : 2 046 kb/s
Channel(s) : 6 channels
Channel layout : C L R Ls Rs LFE
Sampling rate : 48.0 kHz
Frame rate : 93.750 FPS (512 SPF)
Bit depth : 24 bits
Compression mode : Lossy
Stream size : 1.52 GiB (7%)
Language : German
Default : No
Forced : No
Original source medium : Blu-ray

Text
ID : 4
ID in the original source m : 4609 (0x1201)
Format : PGS
Muxing mode : zlib
Codec ID : S_HDMV/PGS
Codec ID/Info : Picture based subtitle format used on BDs/HD-DVDs
Duration : 1 h 45 min
Bit rate : 43.5 kb/s
Count of elements : 2680
Stream size : 32.9 MiB (0%)
Language : German
Default : No
Forced : No
Original source medium : Blu-ray

Menu
00:00:00.000 : en:Розділ 01
00:06:30.582 : en:Розділ 02
00:12:45.915 : en:Розділ 03
00:21:06.125 : en:Розділ 04
00:28:07.458 : en:Розділ 05
00:36:11.125 : en:Розділ 06
00:42:57.458 : en:Розділ 07
00:51:28.541 : en:Розділ 08
00:57:14.541 : en:Розділ 09
01:03:08.458 : en:Розділ 10
01:10:24.957 : en:Розділ 11
01:16:56.250 : en:Розділ 12
01:23:53.125 : en:Розділ 13
01:29:51.041 : en:Розділ 14
01:34:51.041 : en:Розділ 15
01:41:39.416 : en:Розділ 16




Джерело: & &
Особиста оцінка: 8 - мені сподобалося
Це кляте серце / Dieses bescheuerte Herz (2017) Remux 1080p Ukr/Ger | Sub Ger Це кляте серце / Dieses bescheuerte Herz (2017) Remux 1080p Ukr/Ger | Sub Ger


Золотий реліз (завантажене не впливає на рейтинг)
 Трекер:    Зареєстрований   

Завантажити / скачати фільм українською



відео для новачків



 Зареєстрований:   2020-05-06 18:00
 Розмір:   21.56 GB 
 Оцінка фільму:   10/10 (Голосів: 7)
   
bot 
робот


З нами з: 30.09.07
Востаннє: 26.05.05
Повідомлень: 25646

2020-05-06 18:00  
Тему перенесено з Анонси релізів до форуму Фільми в HD


staf777

Lyolic 
VIP


З нами з: 04.08.09
Востаннє: 29.09.20
Повідомлень: 549

2020-05-06 18:26  
Дякую! Якраз шукав ремукс, зробити 265 до колекції )
Ваш часовий пояс: GMT + 2 Години

Нова тема   Відповісти