Декамерон / The Decameron / Il Decameron (1971) AVC Ukr/Ita | Sub Eng

Нові коментарі

Нова тема   Відповісти
Автор Повідомлення
staf777 
Відео Гуртом - підтримка та поширення
Відео Гуртом - підтримка та поширення


З нами з: 16.11.16
Востаннє: 02.07.20
Повідомлень: 3785

2020-05-05 23:03  
Декамерон / The Decameron / Il Decameron (1971) AVC Ukr/Ita | Sub Eng

Декамерон / The Decameron / Il Decameron (1971) AVC Ukr/Ita | Sub Eng


Жанр: драма, комедія, еротика
Країна: Італія, Франція, Німеччина



Кінокомпанія: Produzioni Europee Associati (PEA)
Режисер: П’єр Паоло Пазоліні (Pier Paolo Pasolini)
Актори: Францо Цітті (Franco Citti), Нінетто Даволі (Ninetto Davoli), Джован Джовановік (Jovan Jovanovic), Вінчензо Амато (Vincenzo Amato), Анґела Луц (Angela Luce) та інші.

Сюжет:
Художник Джотто мандрує шляхами Італії епохи Ренесансу, який тільки зароджується. У пошуках гармонії та істини Джотто стає свідком найрізноманітніших життєвих історій і жадібно колекціонує враження від мінливої, багатогранної реальності.
Ця реальність — весела й сумна, сувора чи фривольна, – сповнена могутньою стихією любові й жаги життя, що перемагають усупереч багатовіковим забобонам і заборонам


Тривалість: 01:51:14
Якість: AVC
Відео:
кодек:
розмір кадру: 1024x554
бітрейт: 3400 кб/с

Аудіо # 1:
мова: українська
переклад: двоголосий закадровий
кодек: 2.0
бітрейт: 192 кб/с

Аудіо # 2:
мова: італійська
переклад: оригінал
кодек: 2.0
бітрейт: 192 кб/с

Джерело озвучення:


Субтитри:
мова: англійська
тип: програмні (м'які)
формат: *.srt
Info
General
Unique ID : 8477099494935272807220237605846186044 (0x660A146197D853E77388CA833E0F83C)
Complete name : G:\Фільми AVC\Драма\The Decameron (1971) AVC [UKR][ITA][Hurtom].
Format :
Format version : Version 4
File size : 2.94 GiB
Duration : 1 h 51 min
Overall bit rate : 3 787 kb/s
Movie name : Декамерон / The Decameron (1971) AVC [UKR][ITA][Hurtom]
Encoded date : UTC 2020-05-06 00:01:21
Writing application : v46.0.0 ('No Deeper Escape') 64-bit
Writing library : libebml v1.3.10 + v1.5.2
Cover : Yes
Attachments : cover.jpg

Video
ID : 1
Format : AVC
Format/Info : Advanced Video Codec
Format profile : [email protected]
Format settings : CABAC / 9 Ref Frames
Format settings, CABAC : Yes
Format settings, Reference : 9 frames
Codec ID : V_MPEG4/ISO/AVC
Duration : 1 h 51 min
Bit rate : 3 400 kb/s
Width : 1 024 pixels
Height : 554 pixels
Display aspect ratio : 1.85:1
Frame rate mode : Constant
Frame rate : 23.976 FPS
Color space : YUV
Chroma subsampling : 4:2:0
Bit depth : 8 bits
Scan type : Progressive
Bits/(Pixel*Frame) : 0.250
Stream size : 2.64 GiB (90%)
Writing library : core 130 r2273 b3065e6
Encoding settings : cabac=1 / ref=9 / deblock=1:-3:-3 / analyse=0x3:0x133 / me=umh / subme=11 / psy=1 / psy_rd=1.10:0.20 / mixed_ref=1 / me_range=32 / chroma_me=1 / trellis=2 / 8x8dct=1 / cqm=0 / deadzone=21,11 / fast_pskip=0 / chroma_qp_offset=-3 / threads=6 / lookahead_threads=1 / sliced_threads=0 / nr=0 / decimate=0 / interlaced=0 / bluray_compat=0 / constrained_intra=0 / bframes=8 / b_pyramid=2 / b_adapt=2 / b_bias=0 / direct=3 / weightb=1 / open_gop=0 / weightp=2 / keyint=240 / keyint_min=23 / scenecut=40 / intra_refresh=0 / rc=2pass / mbtree=0 / bitrate=3400 / ratetol=1.0 / qcomp=0.60 / qpmin=0 / qpmax=69 / qpstep=4 / cplxblur=20.0 / qblur=0.5 / ip_ratio=1.40 / pb_ratio=1.30 / aq=1:1.00
Language : English
Default : Yes
Forced : No

Audio #1
ID : 2
Format : AC-3
Format/Info : Audio Coding 3
Commercial name : Dolby Digital
Codec ID : A_AC3
Duration : 1 h 51 min
Bit rate mode : Constant
Bit rate : 192 kb/s
Channel(s) : 2 channels
Channel layout : L R
Sampling rate : 48.0 kHz
Frame rate : 31.250 FPS (1536 SPF)
Compression mode : Lossy
Stream size : 153 MiB (5%)
Title : , 2 ch, 192 Kbps, Українська 1+1
Language : Ukrainian
Service kind : Complete Main
Default : Yes
Forced : Yes

Audio #2
ID : 3
Format : AC-3
Format/Info : Audio Coding 3
Commercial name : Dolby Digital
Codec ID : A_AC3
Duration : 1 h 51 min
Bit rate mode : Constant
Bit rate : 192 kb/s
Channel(s) : 2 channels
Channel layout : L R
Sampling rate : 48.0 kHz
Frame rate : 31.250 FPS (1536 SPF)
Compression mode : Lossy
Stream size : 153 MiB (5%)
Title : , 2 ch, 192 Kbps, Italiano
Language : Italian
Service kind : Complete Main
Default : No
Forced : No

Text
ID : 4
Format : UTF-8
Codec ID : S_TEXT/UTF8
Codec ID/Info : UTF-8 Plain Text
Duration : 1 h 48 min
Bit rate : 34 b/s
Count of elements : 1031
Stream size : 27.3 KiB (0%)
Language : English
Default : No
Forced : No

Menu
00:00:00.000 : en:Chapter 01
00:04:05.370 : en:Chapter 02
00:15:30.054 : en:Chapter 03
00:23:38.750 : en:Chapter 04
00:25:04.293 : en:Chapter 05
00:38:07.702 : en:Chapter 06
00:43:35.487 : en:Chapter 07
00:57:07.966 : en:Chapter 08
01:01:40.822 : en:Chapter 09
01:11:49.595 : en:Chapter 10
01:13:51.510 : en:Chapter 11
01:28:34.434 : en:Chapter 12
01:39:20.621 : en:Chapter 13
01:51:14.459 : en:Chapter 14



Над доріжкою працювали olgaya, abodnya, robotron005
Джерело: &
ЗАЛИШАЙТЕСЬ ЯКОМОГА ДОВШЕ НА РОЗДАЧІ!

СКАЧАВ САМ - ДАЙ СКАЧАТИ ІНШИМ



Срібний реліз (на рейтинг впливає 50% завантаженого)
 Трекер:    Зареєстрований   

Завантажити / скачати фільм українською



відео для новачків



 Зареєстрований:   2020-05-06 03:33
 Розмір:   2.94 GB 
 Оцінка фільму:   9.3/10 (Голосів: 8)
   
bot 
робот


З нами з: 30.09.07
Востаннє: 26.05.05
Повідомлень: 24917

2020-05-06 03:33  
Тему перенесено з Анонси релізів до форуму Фільми


staf777

merime 
Свій


З нами з: 14.02.12
Востаннє: 02.07.20
Повідомлень: 87

2020-05-09 22:45  
Чудова екранізація безсмертної класики
Ваш часовий пояс: GMT + 2 Години

Нова тема   Відповісти