Втеча з каньйону Дикої Кішки / Escape from Wildcat Canyon (1998) AVC Eng | Sub Ukr/Eng

Нові коментарі

Нова тема   Відповісти
Автор Повідомлення
Anonymous 







2020-05-05 21:58  
Втеча з каньйону Дикої Кішки / Escape from Wildcat Canyon (1998) AVC Eng | Sub Ukr/Eng



Жанр: пригодницький, сімейний
Країна: Канада, США



Кінокомпанія: Cypress Point Productions, Gemini Entertainment Inc., Showtime Networks
Режисер: Марк Ф. Вуазар / Marc F. Voizard
Актори: Деннис Вівер, Майкл Калоз, Пітер Келеган, Барбара Радекі, Френк Скорпіон, Власта Врана, Мішель Перрон, Гарі Лоуренс, Аль Вандекруіс, Клаудія Бессо та інші.

Сюжет:
Пілот та двоє пасажирів легкомоторного літака дід та його онук зазнають авіакатастрофи у засніжених горах в безлюдній місцевості. Тепер їм треба впоратися і вижити в екстремальних умовах.


Рейтинг MPAA: G - немає вікових обмежень
Вікова категорія: 0+

Тривалість: 01:32:11
Якість: WEDL-AVC
Відео:
кодек:
розмір кадру: 720x480 @ 640x480 [анаморфний відеоряд 4:3]
бітрейт: 2260 кб/с

Аудіо:
мова: англійська
переклад: оригінал
кодек: 2.0
бітрейт: 192 кб/с

Субтитри # 1:
мова: українська
тип: програмні (м'які)
формат: *.srt
переклад: Олена Козар

Субтитри # 2:
мова: англійська (SDH)
тип: програмні (м'які)
формат: *.srt
Info
Код:
Complete name               : Escape from Wildcat Canyon (1998) [Eng sub.Ukr,Eng] AVC [Hurtom].
Format                      :
Format version              : Version 4
File size                   : 1.58 GiB
Duration                    : 1 h 32 min
Overall bit rate mode       : Variable
Overall bit rate            : 2 448 kb/s
Movie name                  : Втеча з каньйону Дикої Кішки / Escape from Wildcat Canyon (1998) [Eng sub.Ukr,Eng] AVC [Hurtom]
Encoded date                : UTC 2020-05-06 20:50:21
Writing application         : v46.0.0 ('No Deeper Escape') 64-bit
Writing library             : libebml v1.3.10 + v1.5.2
Cover                       : Yes
Comment                     : 06.05.2020
Attachments                 : cover.jpg
Url                         : https://toloka.to/t110473

Video
ID                          : 1
Format                      : AVC
Format/Info                 : Advanced Video Codec
Format profile              : [email protected]
Format settings             : CABAC / 3 Ref Frames
Format settings, CABAC      : Yes
Format settings, Reference  : 3 frames
Codec ID                    : V_MPEG4/ISO/AVC
Duration                    : 1 h 32 min
Bit rate mode               : Variable
Bit rate                    : 2 260 kb/s
Maximum bit rate            : 3 390 kb/s
Width                       : 720 pixels
Height                      : 480 pixels
Display aspect ratio        : 4:3
Frame rate mode             : Constant
Frame rate                  : 25.000 FPS
Color space                 : YUV
Chroma subsampling          : 4:2:0
Bit depth                   : 8 bits
Scan type                   : Progressive
Bits/(Pixel*Frame)          : 0.262
Stream size                 : 1.45 GiB (92%)
Title                       : Втеча з каньйону Дикої Кішки / Escape from Wildcat Canyon (1998) AVC
Writing library             : core 148 r2715 7e75228
Encoding settings           : cabac=1 / ref=3 / deblock=1:0:0 / analyse=0x1:0x111 / me=umh / subme=10 / psy=1 / psy_rd=1.00:0.00 / mixed_ref=1 / me_range=24 / chroma_me=1 / trellis=2 / 8x8dct=0 / cqm=0 / deadzone=21,11 / fast_pskip=1 / chroma_qp_offset=-2 / threads=8 / lookahead_threads=1 / sliced_threads=0 / nr=0 / decimate=1 / interlaced=0 / bluray_compat=0 / stitchable=1 / constrained_intra=0 / bframes=2 / b_pyramid=0 / b_adapt=2 / b_bias=0 / direct=3 / weightb=1 / open_gop=0 / weightp=2 / keyint=250 / keyint_min=25 / scenecut=0 / intra_refresh=0 / rc_lookahead=50 / rc=2pass / mbtree=1 / bitrate=2260 / ratetol=1.0 / qcomp=0.50 / qpmin=6 / qpmax=51 / qpstep=4 / cplxblur=20.0 / qblur=0.5 / vbv_maxrate=3390 / vbv_bufsize=4520 / nal_hrd=vbr / filler=0 / ip_ratio=1.40 / aq=1:1.00
Language                    : English
Default                     : Yes
Forced                      : No

Audio
ID                          : 2
Format                      : AC-3
Format/Info                 : Audio Coding 3
Commercial name             : Dolby Digital
Codec ID                    : A_AC3
Duration                    : 1 h 32 min
Bit rate mode               : Constant
Bit rate                    : 192 kb/s
Channel(s)                  : 2 channels
Channel layout              : L R
Sampling rate               : 48.0 kHz
Frame rate                  : 31.250 FPS (1536 SPF)
Compression mode            : Lossy
Stream size                 : 127 MiB (8%)
Title                       : Original, 2.0 192 Kbps
Language                    : English
Service kind                : Complete Main
Default                     : Yes
Forced                      : No

Text #1
ID                          : 3
Format                      : UTF-8
Codec ID                    : S_TEXT/UTF8
Codec ID/Info               : UTF-8 Plain Text
Duration                    : 1 h 31 min
Bit rate                    : 83 b/s
Count of elements           : 1052
Stream size                 : 56.0 KiB (0%)
Title                       : Ukr Full [Netflix]
Language                    : Ukrainian
Default                     : Yes
Forced                      : Yes

Text #2
ID                          : 4
Format                      : UTF-8
Codec ID                    : S_TEXT/UTF8
Codec ID/Info               : UTF-8 Plain Text
Duration                    : 1 h 29 min
Bit rate                    : 69 b/s
Count of elements           : 1430
Stream size                 : 45.2 KiB (0%)
Title                       : Eng Full
Language                    : English
Default                     : No
Forced                      : No




Джерело: &
Подяка leicheman'у за інформацію про субтитри.


Срібний реліз (на рейтинг впливає 50% завантаженого)
 Трекер:    Зареєстрований   

Завантажити / скачати фільм українською



відео для новачків



 Зареєстрований:   2020-05-06 23:24
 Розмір:   1.58 GB 
 Оцінка фільму:   6.7/10 (Голосів: 3)
 ЗАЛИШАЙТЕСЬ ЯКОМОГА ДОВШЕ НА РОЗДАЧІ! ЗАВАНТАЖИВ САМ - ДАЙ ЗАВАНТАЖИТИ ІНШИМ!
   
Ваш часовий пояс: GMT + 2 Години

Нова тема   Відповісти