Моя дівчинка / Моя донька / My Girl (1991) 720p Eng | Sub Ukr/Eng

Нові коментарі

Нова тема   Відповісти
Автор Повідомлення
Anonymous 







2020-05-05 21:37  
Моя дівчинка / Моя донька / My Girl (1991) 720p Eng | Sub Ukr/Eng



Жанр: комедія, драма, сімейний
Країна: США



Кінокомпанія: Columbia Pictures Imagine Entertainment
Режисер: Говард Зіфф
Актори: Анна Кламскі, Маколей Калкін, Ден Ейкройд, Джемі Лі Кертіс, Річард Мейсер

Сюжет:
Молода дівчина, на порозі підліткових років, вважає, що її життя перевертається догори дриґом.
Вона живе з батько, а дім їх це похоронне бюро. Вона закохана у свого вчителя, сумує за матір'ю яку вона ніколи не бачила бо та померла під час пологів і гуляє зі своїм найкращим другом, який молодший за неї на кілька років.


Тривалість: 01:42:14
Якість:
Відео:
кодек:
розмір кадру: 1280 х 718
бітрейт: 3939 кб/с

Аудіо:
мова: англійська
переклад: оригінал
кодек: 2.0
бітрейт: 256 кб/с

Субтитри:
мова: українська
тип: програмні (м'які)
формат: *.srt

Субтитри:
мова: англійська
тип: програмні (м'які)
формат: *.srt
Info
Video
ID : 1
Format : AVC
Format/Info : Advanced Video Codec
Format profile : [email protected]
Format settings : 2 Ref Frames
Format settings, CABAC : No
Format settings, Reference : 2 frames
Codec ID : V_MPEG4/ISO/AVC
Duration : 1 h 42 min
Bit rate : 3 939 kb/s
Width : 1 280 pixels
Height : 718 pixels
Display aspect ratio : 16:9
Frame rate mode : Constant
Frame rate : 23.976 (23976/1000) FPS
Color space : YUV
Chroma subsampling : 4:2:0
Bit depth : 8 bits
Scan type : Progressive
Bits/(Pixel*Frame) : 0.179
Stream size : 2.81 GiB (94%)
Language : English
Default : No
Forced : No
Color range : Limited
Color primaries : BT.709
Transfer characteristics : BT.709
Matrix coefficients : BT.709

Audio
ID : 2
Format : AC-3
Format/Info : Audio Coding 3
Commercial name : Dolby Digital
Codec ID : A_AC3
Duration : 1 h 42 min
Bit rate mode : Constant
Bit rate : 256 kb/s
Channel(s) : 2 channels
Channel layout : L R
Sampling rate : 48.0 kHz
Frame rate : 31.250 FPS (1536 SPF)
Compression mode : Lossy
Stream size : 187 MiB (6%)
Language : English
Service kind : Complete Main
Default : Yes
Forced : No

Text #1
ID : 3
Format : UTF-8
Codec ID : S_TEXT/UTF8
Codec ID/Info : UTF-8 Plain Text
Duration : 1 h 41 min
Bit rate : 95 b/s
Count of elements : 1369
Stream size : 71.0 KiB (0%)
Title : Netflix
Language : Ukrainian
Default : Yes
Forced : No

Text #2
ID : 4
Format : UTF-8
Codec ID : S_TEXT/UTF8
Codec ID/Info : UTF-8 Plain Text
Duration : 1 h 37 min
Bit rate : 55 b/s
Count of elements : 1266
Stream size : 39.9 KiB (0%)
Language : English
Default : No
Forced : No

Menu
00:00:00.000 : en:Start
00:04:04.000 : en:Embalming his teacher
00:05:37.000 : en:Meeting Shelly
00:09:21.000 : en:Hypochondria blues
00:11:41.000 : en:Secret love
00:14:45.000 : en:Teasing Vada
00:18:00.000 : en:Locked in
00:21:32.000 : en:In Shelly's camper
00:24:01.000 : en:Creative Writing class
00:29:16.000 : en:Blood brothers
00:32:41.000 : en:Make-up lesson
00:37:15.000 : en:Brotherly advice
00:40:46.000 : en:Bingo game
00:43:37.000 : en:Invitation
00:49:09.000 : en:Group meditation
00:53:09.000 : en:July 4th barbecue
01:00:39.000 : en:The beehive
01:02:15.000 : en:The carnival
01:06:06.000 : en:Running away
01:10:11.000 : en:The facts of life
01:11:38.000 : en:"One For My Baby"
01:13:50.000 : en:"Ever kissed anyone?"
01:16:36.000 : en:Thomas J.
01:21:14.000 : en:The funeral
01:25:00.000 : en:Heartbreak
01:30:49.000 : en:Shared memories
01:34:00.000 : en:Mrs. Sennett
01:35:55.000 : en:Vada's poem
Скріншоти










Джерело:
Особиста оцінка: 10 - без зайвих вагань рекомендую всім!


Срібний реліз (на рейтинг впливає 50% завантаженого)
 Трекер:    Зареєстрований   

Завантажити / скачати фільм українською



відео для новачків



 Зареєстрований:   2020-05-05 21:37
 Розмір:   3 GB 
 Оцінка фільму:   10/10 (Голосів: 9)
   
Ваш часовий пояс: GMT + 2 Години

Нова тема   Відповісти