Конан-варвар / Conan the Barbarian (2011) 720p 2xUkr/Eng | Sub Eng

Нові коментарі

Нова тема   Відповісти
Автор Повідомлення
staf777 
Відео Гуртом - підтримка та поширення
Відео Гуртом - підтримка та поширення


З нами з: 16.11.16
Востаннє: 23.09.20
Повідомлень: 4029

2020-05-05 22:13  
Конан-варвар / Conan the Barbarian (2011) 720p 2xUkr/Eng | Sub Eng

Конан-варвар / Conan the Barbarian (2011) 720p 2xUkr/Eng | Sub Eng

Жанр: екшн, пригодницький, фентезі
Країна: США



Кіностудія / кінокомпанія: Nu Image Films, Millennium Films, Paradox Entertainment
Режисер: Маркус Ніспель / Marcus Nispel
Актори: Джейсон Момоа / Jason Momoa, Стівен Ленґ / Stephen Lang, Рейчел Нікольс / Rachel Nichols, Рон Перлман / Ron Perlman, Роуз МакҐован / Rose McGowan, Боб Сапп / Bob Sapp, Лео Ховард / Leo Howard, Стів О'Доннелл / Steven O'Donnell, Нонсо Анозі / Nonso Anozie, Раад Раві / Raad Rawi, Лайла Русс / Laila Rouass, Саїд Тагмауї / Said Taghmaoui, Мілтон Bелш / Milton Welsh, Борислав Ілієв / Borislav Iliev, Натан Джонс / Nathan Jones

Сюжет:
Природа наділила його силою. Загибель батька зробила його лютим. Великий кіммерійський воїн Конан відправляється в далеку мандрівку, щоб помститися за кров свого роду. Але пошуки, які починаються як особиста вендетта, незабаром обертаються епічною сутичкою з надприродними силами, які поневолили народи великої Хайборіі. Кіммерійський воїн - остання надія на порятунок...


Тривалість: 01:52:42
Якість: 720p
Відео:
кодек:
розмір кадру: 1280x534
бітрейт: 4841 кб/с

Аудіо # 1:
мова: українська
переклад: професійний дубльований
кодек: 5.1
бітрейт: 384 кб/с
Фільм перекладено і озвучено на студії Tretyakoff production на замовлення Aurora Distribution

Аудіо # 2:
мова: українська
переклад: багатоголосий закадровий
кодек: 2.0 (стерео)
бітрейт: 192 кб/с

Аудіо # 3:
мова: англійська
переклад: оригінал
кодек: 5.1
бітрейт: 1509 кб/с

Субтитри:
мова: англійська
тип: програмні (м'які)
формат: *.srt
Info
Код:

General
Unique ID                   : 237982473052001231519647688250721332895 (0xB309C1D1E586C7BE27752A158C8C6E9F)
Complete name               : D:\Фентезі\Conan the Barbarian (2011) 720p [2xUKR_ENG] [Hurtom].
Format                      :
Format version              : Version 4
File size                   : 5.46 GiB
Duration                    : 1 h 52 min
Overall bit rate            : 6 935 kb/s
Movie name                  : Конан-варвар / Conan the Barbarian (2011) 720p [2xUKR_ENG] [Hurtom]
Encoded date                : UTC 2020-05-05 22:17:03
Writing application         : v46.0.0 ('No Deeper Escape') 64-bit
Writing library             : libebml v1.3.10 + v1.5.2
Cover                       : Yes
Attachments                 : cover.jpg

Video
ID                          : 1
Format                      : AVC
Format/Info                 : Advanced Video Codec
Format profile              : [email protected]
Format settings             : CABAC / 12 Ref Frames
Format settings, CABAC      : Yes
Format settings, Reference  : 12 frames
Codec ID                    : V_MPEG4/ISO/AVC
Duration                    : 1 h 52 min
Bit rate                    : 4 841 kb/s
Width                       : 1 280 pixels
Height                      : 534 pixels
Display aspect ratio        : 2.40:1
Frame rate mode             : Constant
Frame rate                  : 23.976 FPS
Color space                 : YUV
Chroma subsampling          : 4:2:0
Bit depth                   : 8 bits
Scan type                   : Progressive
Bits/(Pixel*Frame)          : 0.295
Stream size                 : 3.82 GiB (70%)
Title                       : Release for HDCLUB
Writing library             : core 102 r1666 d058f37
Encoding settings           : cabac=1 / ref=12 / deblock=1:-3:-3 / analyse=0x3:0x113 / me=umh / subme=10 / psy=1 / psy_rd=1.05:0.10 / mixed_ref=1 / me_range=32 / chroma_me=1 / trellis=2 / 8x8dct=1 / cqm=2 / deadzone=21,11 / fast_pskip=0 / chroma_qp_offset=-2 / threads=6 / sliced_threads=0 / nr=0 / decimate=1 / interlaced=0 / constrained_intra=0 / bframes=6 / b_pyramid=2 / b_adapt=2 / b_bias=0 / direct=3 / weightb=1 / open_gop=0 / weightp=2 / keyint=250 / keyint_min=25 / scenecut=40 / intra_refresh=0 / rc_lookahead=40 / rc=2pass / mbtree=1 / bitrate=4841 / ratetol=1.0 / qcomp=0.60 / qpmin=10 / qpmax=51 / qpstep=4 / cplxblur=20.0 / qblur=0.5 / vbv_maxrate=50000 / vbv_bufsize=50000 / ip_ratio=1.40 / aq=1:0.80 / nal_hrd=none
Language                    : English
Default                     : No
Forced                      : No

Audio #1
ID                          : 2
Format                      : AC-3
Format/Info                 : Audio Coding 3
Commercial name             : Dolby Digital
Codec ID                    : A_AC3
Duration                    : 1 h 52 min
Bit rate mode               : Constant
Bit rate                    : 384 kb/s
Channel(s)                  : 6 channels
Channel layout              : L R C LFE Ls Rs
Sampling rate               : 48.0 kHz
Frame rate                  : 31.250 FPS (1536 SPF)
Compression mode            : Lossy
Stream size                 : 310 MiB (6%)
Title                       : Dub [Tretyakoff production], 5.1 384 kbps
Language                    : Ukrainian
Service kind                : Complete Main
Default                     : Yes
Forced                      : Yes

Audio #2
ID                          : 3
Format                      : AC-3
Format/Info                 : Audio Coding 3
Commercial name             : Dolby Digital
Codec ID                    : A_AC3
Duration                    : 1 h 52 min
Bit rate mode               : Constant
Bit rate                    : 192 kb/s
Channel(s)                  : 2 channels
Channel layout              : L R
Sampling rate               : 48.0 kHz
Frame rate                  : 31.250 FPS (1536 SPF)
Compression mode            : Lossy
Stream size                 : 155 MiB (3%)
Title                       : MVO [Volia CINE+] 2.0 [stereo] 192 Kbps
Language                    : Ukrainian
Service kind                : Complete Main
Default                     : No
Forced                      : No

Audio #3
ID                          : 4
Format                      :
Format/Info                 : Digital Theater Systems
Codec ID                    : A_DTS
Duration                    : 1 h 52 min
Bit rate mode               : Constant
Bit rate                    : 1 509 kb/s
Channel(s)                  : 6 channels
Channel layout              : C L R Ls Rs LFE
Sampling rate               : 48.0 kHz
Frame rate                  : 93.750 FPS (512 SPF)
Bit depth                   : 24 bits
Compression mode            : Lossy
Stream size                 : 1.19 GiB (22%)
Title                       : 5.1 @ 1536 kbps
Language                    : English
Default                     : No
Forced                      : No

Text
ID                          : 5
Format                      : UTF-8
Codec ID                    : S_TEXT/UTF8
Codec ID/Info               : UTF-8 Plain Text
Duration                    : 1 h 43 min
Bit rate                    : 22 b/s
Count of elements           : 604
Stream size                 : 16.9 KiB (0%)
Language                    : English
Default                     : No
Forced                      : No





Над доріжками працювали: slavik_v_z, karvai0, Sando7
Джерело:
Особиста оцінка: 8 - мені сподобалося
Конан-варвар / Conan the Barbarian (2011) 720p 2xUkr/Eng | Sub Eng Конан-варвар / Conan the Barbarian (2011) 720p 2xUkr/Eng | Sub Eng


 Трекер:    Зареєстрований   

Завантажити / скачати фільм українською



відео для новачків



 Зареєстрований:   2020-05-06 01:36
 Розмір:   5.46 GB 
 Оцінка фільму:   8.7/10 (Голосів: 9)
   
Інші релізи
   Конан-варвар / Conan the Barbarian (2011) 1080p 2xUkr/Eng | Sub Eng staf777  4 / 0   10.45 GB   2019-05-12 20:24 
   Конан-варвар / Conan the Barbarian (2011) AVC 2xUkr/Eng | sub Eng AngryBirdsUA  4 / 0   2.38 GB   2019-05-11 14:24 
   Конан-варвар / Conan the Barbarian (2011) patriot2305  2 / 0   1.41 GB   2012-07-13 22:14 
   Конан-варвар / Conan the Barbarian (2011) Ukr/Eng | Sub Eng karvai0  4 / 0   2.18 GB   2012-07-07 16:19 
   Конан-варвар / Conan the Barbarian (2011) 720p | Line Dim-ON  0 / 0   4.12 GB   2011-11-07 18:28 
bot 
робот


З нами з: 30.09.07
Востаннє: 26.05.05
Повідомлень: 25578

2020-05-06 01:36  
Тему перенесено з Анонси релізів до форуму Фільми в HD


staf777

slammajamma 
Новенький


З нами з: 11.01.16
Востаннє: 23.09.20
Повідомлень: 10

2020-05-06 23:25  
Це Конан курця.
Ваш часовий пояс: GMT + 2 Години

Нова тема   Відповісти