У долині насильства / In a Valley of Violence (2016) 1080p Eng | Sub Ukr/Eng

Нові коментарі

Нова тема   Відповісти
Останній раз роздавалося Timm (2020-11-27)
Автор Повідомлення
Anonymous 







2020-05-05 21:06  
У долині насильства / In a Valley of Violence (2016) 1080p Eng | Sub Ukr/Eng


Альтернативні постери:

У долині насильства / In a Valley of Violence (2016) 1080p Eng | Sub Ukr/Eng
У долині насильства / In a Valley of Violence (2016) 1080p Eng | Sub Ukr/Eng




Жанр: вестерн
Країна: США



Кінокомпанія: Blumhouse Productions
Режисер: Ті Вест
Актори: Ітан Гоук, Таїсса Фарміґа, Джон Траволта та інші

Сюжет:
Бродяга на ім'я Пол, якому нічого втрачати, прагне помститися бандитам, які вбили його найкращого друга.

Тривалість: 01:43:37
Якість: 1080p
Відео:
Кодек:
Розмір кадру: 1920 x 804
Бітрейт: 16,5 Мбіт/с

Аудіо #1:
Мова: англійська
Переклад: оригінал
Кодек: 5.1
Бітрейт: 1509 Кбіт/с

Субтитри #1:
Мова: українська | Повні [Netflix]
Тип: програмні (м'які)
Формат: *.srt

Субтитри # 2-3:
Мова: англійська | Повні, SDH
Тип: програмні (м'які)
Формат: *.srt

Info


General
Unique ID : 51673832296545749117507487266622997836 (0x26E004A1F2732337A28CAC1CCAED054C)
Format :
Format version : Version 4
File size : 13.0 GiB
Duration : 1 h 43 min
Overall bit rate : 18.0 Mb/s
Movie name : In A Valley Of Violence (2016) 1080p [Eng][SubEng] [Hurtom]
Encoded date : UTC 2020-05-05 16:36:48
Writing application : v46.0.0 ('No Deeper Escape') 64-bit
Writing library : libebml v1.3.10 + v1.5.2
Attachments : poster_eng.jpg / poster_eng2.jpg / poster_eng3.jpg

Video
ID : 1
Format : AVC
Format/Info : Advanced Video Codec
Format profile : [email protected]
Format settings : CABAC / 5 Ref Frames
Format settings, CABAC : Yes
Format settings, Reference fra : 5 frames
Codec ID : V_MPEG4/ISO/AVC
Duration : 1 h 43 min
Bit rate : 16.5 Mb/s
Width : 1 920 pixels
Height : 804 pixels
Display aspect ratio : 2.40:1
Frame rate mode : Constant
Frame rate : 23.976 (24000/1001) FPS
Color space : YUV
Chroma subsampling : 4:2:0
Bit depth : 8 bits
Scan type : Progressive
Bits/(Pixel*Frame) : 0.446
Stream size : 11.9 GiB (92%)
Title : In A Valley Of Violence (2016) 1080p
Writing library : core 148 r2744 b97ae06
Encoding settings : cabac=1 / ref=5 / deblock=1:-3:-3 / analyse=0x3:0x133 / me=tesa / subme=11 / psy=1 / psy_rd=1.00:0.00 / mixed_ref=1 / me_range=32 / chroma_me=1 / trellis=2 / 8x8dct=1 / cqm=0 / deadzone=21,11 / fast_pskip=0 / chroma_qp_offset=-2 / threads=25 / lookahead_threads=4 / sliced_threads=0 / nr=0 / decimate=0 / interlaced=0 / bluray_compat=0 / constrained_intra=0 / bframes=8 / b_pyramid=2 / b_adapt=2 / b_bias=0 / direct=3 / weightb=1 / open_gop=0 / weightp=2 / keyint=240 / keyint_min=23 / scenecut=40 / intra_refresh=0 / rc_lookahead=150 / rc=2pass / mbtree=0 / bitrate=16500 / ratetol=1.0 / qcomp=0.60 / qpmin=0 / qpmax=69 / qpstep=4 / cplxblur=20.0 / qblur=0.5 / vbv_maxrate=62500 / vbv_bufsize=78125 / nal_hrd=none / filler=0 / ip_ratio=1.40 / pb_ratio=1.30 / aq=1:0.80 / zones=144636,149064,b=0.2
Language : English
Default : Yes
Forced : No
Color range : Limited
Matrix coefficients : BT.709

Audio
ID : 2
Format :
Format/Info : Digital Theater Systems
Codec ID : A_DTS
Duration : 1 h 43 min
Bit rate mode : Constant
Bit rate : 1 509 kb/s
Channel(s) : 6 channels
Channel layout : C L R Ls Rs LFE
Sampling rate : 48.0 kHz
Frame rate : 93.750 FPS (512 SPF)
Bit depth : 24 bits
Compression mode : Lossy
Stream size : 1.09 GiB (8%)
Title : [Оригінал] 5.1 @ 1509 Кбіт/с
Language : English
Default : Yes
Forced : No

Text #1
ID : 3
Format : UTF-8
Codec ID : S_TEXT/UTF8
Codec ID/Info : UTF-8 Plain Text
Duration : 1 h 42 min
Bit rate : 90 b/s
Count of elements : 1243
Stream size : 68.2 KiB (0%)
Title : Повні [Netflix]
Language : Ukrainian
Default : Yes
Forced : No

Text #2
ID : 4
Format : UTF-8
Codec ID : S_TEXT/UTF8
Codec ID/Info : UTF-8 Plain Text
Duration : 1 h 38 min
Bit rate : 56 b/s
Count of elements : 1309
Stream size : 41.2 KiB (0%)
Title : Full
Language : English
Default : No
Forced : No

Text #3
ID : 5
Format : UTF-8
Codec ID : S_TEXT/UTF8
Codec ID/Info : UTF-8 Plain Text
Duration : 1 h 39 min
Bit rate : 61 b/s
Count of elements : 1475
Stream size : 44.7 KiB (0%)
Title : SDH
Language : English
Default : No
Forced : No

Menu
00:00:00.000 : en:Chapter 1
00:08:12.033 : en:Chapter 2
00:12:10.605 : en:Chapter 3
00:18:04.375 : en:Chapter 4
00:23:38.626 : en:Chapter 5
00:26:42.476 : en:Chapter 6
00:31:03.278 : en:Chapter 7
00:36:37.821 : en:Chapter 8
00:41:27.485 : en:Chapter 9
00:50:31.987 : en:Chapter 10
00:56:27.050 : en:Chapter 11
01:01:45.535 : en:Chapter 12
01:05:32.262 : en:Chapter 13
01:08:18.136 : en:Chapter 14
01:12:24.423 : en:Chapter 15
01:16:22.745 : en:Chapter 16
01:20:23.027 : en:Chapter 17
01:25:15.527 : en:Chapter 18
01:33:04.412 : en:Chapter 19
01:39:17.577 : en:Chapter 20
Скріншоти








Джерело: &


 Трекер:    Зареєстрований   

Завантажити / скачати фільм українською



відео для новачків



 Зареєстрований:   2020-05-05 21:06
 Розмір:   13.03 GB 
 Оцінка фільму:   9/10 (Голосів: 1)
   
Інші релізи
Ваш часовий пояс: GMT + 2 Години

Нова тема   Відповісти