Люди під сходами / The People Under The Stairs (1991) 1080p 2xUkr/Eng | Sub Ukr/Eng

Нові коментарі

Нова тема   Відповісти
Автор Повідомлення
Anonymous 







2020-05-05 17:18  
Люди під сходами / The People Under The Stairs (1991) 1080p 2xUkr/Eng | Sub Ukr/Eng


Оригінальний постер:

Люди під сходами / The People Under The Stairs (1991) 1080p 2xUkr/Eng | Sub Ukr/Eng




Жанр: жахи, трилер, комедія, детектив
Країна: США



Кінокомпанія: Alive Films, Universal Pictures
Режисер: Вес Крейвен / Wes Craven
Сценарист: Вес Крейвен / Wes Craven
Композитор: Дон Пік / Don Peake
Актори: Брендон Квінтін Адамс / Brandon Quintin Adams, Еверет МакГілл / Everett McGill, Венді Робі / Wendy Robie, А. Дж. Ленджер / A.J. Langer, Вінг Реймс / Ving Rhames, Шон Вейлен / Sean Whalen, Білл Коббс / Bill Cobbs та інші

Сюжет:
У кожному місті є будинок, про який розповідають жахливі речі. Дорослі говорять про це місце пошепки, а всі сусідські хлоп'ята обходять його стороною. Від таких похмурих будинків віє вогкістю і смертю. І навряд чи знайдеться сміливець, який, навіть на суперечку зважиться наблизитися до страшного місця в темряві ночі.
Але трапилося так, що одного разу звичайний десятирічний хлопчик вступив в страшне житло. Той жах, який довелося випробувати маленькому героєві, неможливо описати словами.


Тривалість: 01:41:56
Якість: 1080p
Відео:
Кодек:
Розмір кадру: 1920 x 1080
Бітрейт: 14,6 Мбіт/с

Аудіо #1:
Мова: українська
Переклад: багатоголосий закадровий [НЛО-ТВ]

Кодек: 2.0
Бітрейт: 192 Кбіт/с

Аудіо #2:
Мова: українська
Переклад: багатоголосий закадровий [Новий Канал]

Кодек: 2.0
Бітрейт: 192 Кбіт/с

Аудіо #3:
Мова: англійська
Переклад: оригінал
Кодек: 5.1
Бітрейт: 1509 Кбіт/с

Аудіо #4:
Мова: англійська
Переклад: коментарі з актором Брендоном Квінтіном Адамсом, ведучий Calum Waddell
Кодек: 2.0
Бітрейт: 69.5 Кбіт/с

Субтитри #1:
Мова: українська | Повні

Тип: програмні (м'які)
Формат: *.srt

Субтитри #2-3:
Мова: англійська | Повні, SDH
Тип: програмні (м'які)
Формат: *.srt

Info


General
Unique ID : 132254066454888182560676814519680797645 (0x637F34E952FF3C71706BADBD18E68BCD)
Format :
Format version : Version 4
File size : 11.8 GiB
Duration : 1 h 41 min
Overall bit rate : 16.6 Mb/s
Movie name : Люди під сходами / The People Under the Stairs (1991) 1080p [2xUkrEng][SubUkrEng] [Hurtom]
Encoded date : UTC 2020-05-05 10:47:57
Writing application : v46.0.0 ('No Deeper Escape') 64-bit
Writing library : libebml v1.3.10 + v1.5.2
Attachments : poster_ukr.jpg / poster_eng.jpg

Video
ID : 1
Format : AVC
Format/Info : Advanced Video Codec
Format profile : [email protected]
Format settings : CABAC / 4 Ref Frames
Format settings, CABAC : Yes
Format settings, Reference fra : 4 frames
Codec ID : V_MPEG4/ISO/AVC
Duration : 1 h 41 min
Bit rate : 14.6 Mb/s
Width : 1 920 pixels
Height : 1 080 pixels
Display aspect ratio : 16:9
Frame rate mode : Constant
Frame rate : 23.976 (24000/1001) FPS
Color space : YUV
Chroma subsampling : 4:2:0
Bit depth : 8 bits
Scan type : Progressive
Bits/(Pixel*Frame) : 0.294
Stream size : 10.4 GiB (88%)
Title : The People Under The Stairs (1991) 1080p
Writing library : core 157 r2935 545de2f
Encoding settings : cabac=1 / ref=4 / deblock=1:-3:-3 / analyse=0x3:0x133 / me=umh / subme=10 / psy=1 / psy_rd=1.00:0.00 / mixed_ref=1 / me_range=24 / chroma_me=1 / trellis=2 / 8x8dct=1 / cqm=0 / deadzone=21,11 / fast_pskip=0 / chroma_qp_offset=-2 / threads=18 / lookahead_threads=3 / sliced_threads=0 / nr=0 / decimate=1 / interlaced=0 / bluray_compat=0 / constrained_intra=0 / bframes=8 / b_pyramid=2 / b_adapt=2 / b_bias=0 / direct=3 / weightb=1 / open_gop=0 / weightp=2 / keyint=240 / keyint_min=24 / scenecut=40 / intra_refresh=0 / rc_lookahead=60 / rc=crf / mbtree=1 / crf=14.0 / qcomp=0.60 / qpmin=0 / qpmax=69 / qpstep=4 / vbv_maxrate=62500 / vbv_bufsize=78125 / crf_max=0.0 / nal_hrd=none / filler=0 / ip_ratio=1.40 / aq=1:1.00
Language : English
Default : Yes
Forced : No
Color range : Limited
Color primaries : BT.709
Transfer characteristics : BT.709
Matrix coefficients : BT.709

Audio #1
ID : 2
Format : AC-3
Format/Info : Audio Coding 3
Commercial name : Dolby Digital
Codec ID : A_AC3
Duration : 1 h 41 min
Bit rate mode : Constant
Bit rate : 192 kb/s
Channel(s) : 2 channels
Channel layout : L R
Sampling rate : 48.0 kHz
Frame rate : 31.250 FPS (1536 SPF)
Bit depth : 16 bits
Compression mode : Lossy
Stream size : 140 MiB (1%)
Title : MVO [НЛО-ТВ] 2.0 @ 192 Кбіт/с [Hurtom-patriot2305]
Language : Ukrainian
Service kind : Complete Main
Default : Yes
Forced : No

Audio #2
ID : 3
Format : AC-3
Format/Info : Audio Coding 3
Commercial name : Dolby Digital
Codec ID : A_AC3
Duration : 1 h 41 min
Bit rate mode : Constant
Bit rate : 192 kb/s
Channel(s) : 2 channels
Channel layout : L R
Sampling rate : 48.0 kHz
Frame rate : 31.250 FPS (1536 SPF)
Bit depth : 16 bits
Compression mode : Lossy
Stream size : 140 MiB (1%)
Title : MVO [Новий Канал] 2.0 192 Кбіт/с [Hurtom-patriot2305]
Language : Ukrainian
Service kind : Complete Main
Default : No
Forced : No

Audio #3
ID : 4
Format :
Format/Info : Digital Theater Systems
Codec ID : A_DTS
Duration : 1 h 41 min
Bit rate mode : Constant
Bit rate : 1 509 kb/s
Channel(s) : 2 channels
Channel layout : Lt Rt
Sampling rate : 48.0 kHz
Frame rate : 93.750 FPS (512 SPF)
Bit depth : 24 bits
Compression mode : Lossy
Stream size : 1.07 GiB (9%)
Title : [Оригінал] 2.0 @ 1509 Кбіт/с
Language : English
Default : No
Forced : No

Audio #4
ID : 5
Format : LC
Format/Info : Advanced Audio Codec Low Complexity
Codec ID : A_AAC-2
Duration : 1 h 41 min
Bit rate : 69.5 kb/s
Channel(s) : 2 channels
Channel layout : L R
Sampling rate : 48.0 kHz
Frame rate : 46.875 FPS (1024 SPF)
Compression mode : Lossy
Delay relative to video : 9 ms
Stream size : 50.7 MiB (0%)
Title : Коментарі з актором Брендоном Квінтіном Адамсом 2.0 @ 69 Кбіт/с
Language : English
Default : No
Forced : No

Text #1
ID : 6
Format : UTF-8
Codec ID : S_TEXT/UTF8
Codec ID/Info : UTF-8 Plain Text
Duration : 1 h 37 min
Bit rate : 64 b/s
Count of elements : 793
Stream size : 46.3 KiB (0%)
Title : Повні
Language : Ukrainian
Default : No
Forced : No

Text #2
ID : 7
Format : UTF-8
Codec ID : S_TEXT/UTF8
Codec ID/Info : UTF-8 Plain Text
Duration : 1 h 41 min
Bit rate : 45 b/s
Count of elements : 1056
Stream size : 33.5 KiB (0%)
Title : Full
Language : English
Default : No
Forced : No

Text #3
ID : 8
Format : UTF-8
Codec ID : S_TEXT/UTF8
Codec ID/Info : UTF-8 Plain Text
Duration : 1 h 41 min
Bit rate : 50 b/s
Count of elements : 1236
Stream size : 37.4 KiB (0%)
Title : SDH
Language : English
Default : No
Forced : No

Menu
00:00:00.000 : en:00:00:00.000
00:05:16.983 : en:00:05:16.983
00:11:31.232 : en:00:11:31.232
00:16:12.346 : en:00:16:12.346
00:22:11.121 : en:00:22:11.121
00:26:25.250 : en:00:26:25.250
00:34:19.015 : en:00:34:19.015
00:41:25.858 : en:00:41:25.858
00:47:24.258 : en:00:47:24.258
00:52:10.336 : en:00:52:10.336
00:57:08.383 : en:00:57:08.383
01:00:07.562 : en:01:00:07.562
01:06:10.550 : en:01:06:10.550
01:11:16.772 : en:01:11:16.772
01:16:05.811 : en:01:16:05.811
01:23:38.222 : en:01:23:38.222
01:29:38.999 : en:01:29:38.999
01:38:22.688 : en:01:38:22.688
Скріншоти








Джерело:

українські доріжки - patriot2305 - зведення, POMEO (1) та dvorsky (2) - запис з ТБ;
українізований постер - hellforces;
українські субтитри - Mirmekiy (рутрекер) - витягнення та розпізнавання.


Срібний реліз (на рейтинг впливає 50% завантаженого)
 Трекер:    Зареєстрований   

Завантажити / скачати фільм українською



відео для новачків



 Зареєстрований:   2020-05-06 14:09
 Розмір:   11.79 GB 
 Оцінка фільму:   -/10 (Голосів: 0)
   
roalad 
VIP


З нами з: 22.06.12
Востаннє: 19.09.20
Повідомлень: 362

2020-05-06 12:48  
Що за вічне довантаження файла?
Anonymous 







2020-05-06 13:38  
roalad
Не знаю, дивна поведінка в мене вже 160 гб скачали, а що у вас показується? Яка поведінка?

Neytreenor 
Відео Гуртом - запис з ТБ
Відео Гуртом - запис з ТБ


З нами з: 03.04.11
Востаннє: 19.09.20
Повідомлень: 2761

2020-05-06 13:50  
Anonymous
Зробить у себе перевірку хеша торента. У вас один шматок постійно віддається неправильний. Можливо, файл пошкоджено або змінено після створення релізу.

P.S. Перед тим краще файл кудись скопіювати, щоб торент не перезатер той шматок нулями.

roalad 
VIP


З нами з: 22.06.12
Востаннє: 19.09.20
Повідомлень: 362

2020-05-06 14:03  
Anonymous написано:
Не знаю, дивна поведінка в мене вже 160 гб скачали, а що у вас показується? Яка поведінка?

https://fex.net/uk/s/ms00zay - в мене вічне завантаження

igor911 
Модератор відео


З нами з: 18.01.08
Востаннє: 19.09.20
Повідомлень: 14994

2020-05-06 14:09  
перевірте реліз і виправте торент-файл

Додано через 4 хвилини 9 секунд:

Anonymous написано:
ріп відео, оригінальні звук та субтитри - Sbr (Skazhutin), delia (HDClub);

також приберіть цю копі-пасту, інформація не дійсна для цього релізу.

bot 
робот


З нами з: 30.09.07
Востаннє: 26.05.05
Повідомлень: 25546

2020-05-06 14:20  
Тему перенесено з Неоформлене відео до форуму Фільми в HD


igor911

igor911 
Модератор відео


З нами з: 18.01.08
Востаннє: 19.09.20
Повідомлень: 14994

2020-05-06 14:23  
Зауваження щодо ріпу - бажано обрізати чорні смуги (робити кроп при ріпуванні) або обирати такий ріп для релізу, де їх обрізали.
Anonymous 







2020-05-06 14:23  
Перестворив заново торрент. Перекачайте будь ласка
Перепрошую за незручності

roalad 
VIP


З нами з: 22.06.12
Востаннє: 19.09.20
Повідомлень: 362

2020-05-06 15:09  
Anonymous
Все оке, дякую за відео!

Ваш часовий пояс: GMT + 2 Години

Нова тема   Відповісти