Готель “Ґранд Будапешт” / The Grand Budapest Hotel (2014) Remux 1080p Ukr/Eng | Sub Ukr/Eng

Нові коментарі

Нова тема   Відповісти
Автор Повідомлення
Anonymous 







2020-05-05 01:23  
Готель “Ґранд Будапешт” / The Grand Budapest Hotel (2014) Remux 1080p Ukr/Eng | Sub Ukr/Eng

Готель “Ґранд Будапешт” / The Grand Budapest Hotel (2014) Remux 1080p Ukr/Eng | Sub Ukr/Eng


Жанр: комедія
Країна: США, Німеччина



Кінокомпанія: Scott Rudin Productions, Indian Paintbrush, Studio Babelsberg
Режисер: Вес Андерсон / Wes Anderson
Актори: Рейф Файнс / Ralph Fiennes, Ф. Мюррей Абрагам / F. Murray Abraham, Едвард Нортон / Edward Norton, Матьє Амальрік / Mathieu Amalric, Сірша Ронан / Saoirse Ronan, Едріан Броуді / Adrien Brody, Віллем Дефо / Willem Dafoe та інші

Сюжет:
Картина розповість про легендарного конс'єржа популярного європейського готелю і простежить за його життям між двома світовими війнами, а також за його дружбою з юною співробітницею, яка стає його протеже.
Сюжет включає в себе крадіжку безцінної картини епохи Відродження, боротьбу за величезний спадок і потрясіння, що спіткали Європу під час першої половини XX століття...


Тривалість: 01:39:56
Якість: Blu-Ray Remux 1080p

Відео:
кодек:
розмір кадру: 1920 x 1080
бітрейт: 34900 кб/с

Аудіо # 1:
мова: українська
переклад: професійний дубльований
кодек: 2.0 (стерео)
бітрейт: 192 кб/с
Інформація про дубляж
Фільм дубльовано студією «Postmodern» у 2014 році.

Переклад і укладка тексту: Надія Бойван
Режисер дубляжу: Ганна Плащенко
Звукорежисер: Ганна Малієнко
Менеджер: Ірина Туловська
Ролі дублювали: Ґустав - Андрій Твердак, Зеро - Михайло Федорченко, Мустафа - Юрій Висоцький, Молодий автор - Іван Розін, Агата - Дарина Муращенко, Дімітрій - Дмитро Терещук, Іван -, Євген Пашин, Автор - Олександр Ігнатуша, Мадам Ді - Людмила Суслова, Ковакс - Юрій Гребельник, Джоплінг - Кирило Нікітенко, Людвіг - Валерій Легін, та інші.
Аудіо # 2:
мова: англійська
переклад: оригінал
кодек: АС3 5.1
бітрейт: 448 кб/с

Аудіо # 3:
мова: англійська
переклад: оригінал
кодек: -HD MA 5.1
бітрейт: 3533 кб/с

Субтитри (Forced, Full):
мова: українська
тип: програмні (м'які)
формат: *.srt

Субтитри (Forced, Full, SDH):
мова: англійська
тип: програмні (м'які)
формат: *.srt
Info
Код:
General
Complete name                            : The Grand Budapest Hotel (2014) Blu-Ray Remux 1080p [ukr, eng] [ViDeO_Hurtom].
Format                                   :
Format version                           : Version 4
File size                                : 27.3 GiB
Duration                                 : 1 h 39 min
Overall bit rate mode                    : Variable
Overall bit rate                         : 39.1 Mb/s
Movie name                               : Готель “Ґранд Будапешт” / The Grand Budapest Hotel (2014)
Encoded date                             : UTC 2020-05-04 22:40:12
Writing application                      : v30.1.0 ('Forever And More') 64-bit
Writing library                          : libebml v1.3.6 + v1.4.9
Cover                                    : Yes
Attachments                              : cover.jpg

Video
ID                                       : 1
Format                                   : AVC
Format/Info                              : Advanced Video Codec
Format profile                           : [email protected]
Format settings                          : CABAC / 4 Ref Frames
Format settings, CABAC                   : Yes
Format settings, RefFrames               : 4 frames
Format settings, GOP                     : M=3, N=12
Codec ID                                 : V_MPEG4/ISO/AVC
Duration                                 : 1 h 39 min
Bit rate mode                            : Variable
Bit rate                                 : 34.9 Mb/s
Maximum bit rate                         : 37.0 Mb/s
Width                                    : 1 920 pixels
Height                                   : 1 080 pixels
Display aspect ratio                     : 16:9
Frame rate mode                          : Constant
Frame rate                               : 23.976 (24000/1001) FPS
Color space                              : YUV
Chroma subsampling                       : 4:2:0
Bit depth                                : 8 bits
Scan type                                : Progressive
Bits/(Pixel*Frame)                       : 0.702
Stream size                              : 24.4 GiB (89%)
Title                                    : The.Grand.Budapest.Hotel.2014.Criterion.BluRay.REMUX.1080p
Language                                 : English
Default                                  : Yes
Forced                                   : No

Audio #1
ID                                       : 2
Format                                   : AC-3
Format/Info                              : Audio Coding 3
Commercial name                          : Dolby Digital
Codec ID                                 : A_AC3
Duration                                 : 1 h 39 min
Bit rate mode                            : Constant
Bit rate                                 : 192 kb/s
Channel(s)                               : 2 channels
Channel layout                           : L R
Sampling rate                            : 48.0 kHz
Frame rate                               : 31.250 FPS (1536 SPF)
Bit depth                                : 16 bits
Compression mode                         : Lossy
Delay relative to video                  : 905 ms
Stream size                              : 137 MiB (0%)
Title                                    : 2.0 | 192
Language                                 : Ukrainian
Service kind                             : Complete Main
Default                                  : Yes
Forced                                   : No

Audio #2
ID                                       : 3
Format                                   : AC-3
Format/Info                              : Audio Coding 3
Commercial name                          : Dolby Digital
Codec ID                                 : A_AC3
Duration                                 : 1 h 39 min
Bit rate mode                            : Constant
Bit rate                                 : 448 kb/s
Channel(s)                               : 6 channels
Channel layout                           : L R C LFE Ls Rs
Sampling rate                            : 48.0 kHz
Frame rate                               : 31.250 FPS (1536 SPF)
Bit depth                                : 16 bits
Compression mode                         : Lossy
Stream size                              : 320 MiB (1%)
Title                                    : 5.1 | 448
Language                                 : English
Service kind                             : Complete Main
Default                                  : No
Forced                                   : No

Audio #3
ID                                       : 4
Format                                   : XLL
Format/Info                              : Digital Theater Systems
Commercial name                          : -HD Master Audio
Codec ID                                 : A_DTS
Duration                                 : 1 h 39 min
Bit rate mode                            : Variable
Bit rate                                 : 3 533 kb/s
Channel(s)                               : 6 channels
Channel layout                           : C L R Ls Rs LFE
Sampling rate                            : 48.0 kHz
Frame rate                               : 93.750 FPS (512 SPF)
Bit depth                                : 24 bits
Compression mode                         : Lossless
Stream size                              : 2.47 GiB (9%)
Title                                    : -HD MA 5.1 | 3533
Language                                 : English
Default                                  : No
Forced                                   : No

Text #1
ID                                       : 5
Format                                   : UTF-8
Codec ID                                 : S_TEXT/UTF8
Codec ID/Info                            : UTF-8 Plain Text
Duration                                 : 6 min 54 s
Bit rate                                 : 7 b/s
Count of elements                        : 9
Stream size                              : 412 Bytes (0%)
Title                                    : Forced
Language                                 : Ukrainian
Default                                  : Yes
Forced                                   : No

Text #2
ID                                       : 6
Format                                   : UTF-8
Codec ID                                 : S_TEXT/UTF8
Codec ID/Info                            : UTF-8 Plain Text
Duration                                 : 1 h 39 min
Bit rate                                 : 113 b/s
Count of elements                        : 1278
Stream size                              : 83.0 KiB (0%)
Title                                    : Full
Language                                 : Ukrainian
Default                                  : No
Forced                                   : No

Text #3
ID                                       : 7
Format                                   : UTF-8
Codec ID                                 : S_TEXT/UTF8
Codec ID/Info                            : UTF-8 Plain Text
Duration                                 : 6 min 54 s
Bit rate                                 : 4 b/s
Count of elements                        : 9
Stream size                              : 241 Bytes (0%)
Title                                    : Forced
Language                                 : English
Default                                  : No
Forced                                   : No

Text #4
ID                                       : 8
Format                                   : UTF-8
Codec ID                                 : S_TEXT/UTF8
Codec ID/Info                            : UTF-8 Plain Text
Duration                                 : 1 h 33 min
Bit rate                                 : 71 b/s
Count of elements                        : 1337
Stream size                              : 48.9 KiB (0%)
Title                                    : Full
Language                                 : English
Default                                  : No
Forced                                   : No

Text #5
ID                                       : 9
Format                                   : UTF-8
Codec ID                                 : S_TEXT/UTF8
Codec ID/Info                            : UTF-8 Plain Text
Duration                                 : 1 h 31 min
Bit rate                                 : 76 b/s
Count of elements                        : 1424
Stream size                              : 51.3 KiB (0%)
Title                                    : SDH
Language                                 : English
Default                                  : No
Forced                                   : No

Menu
00:00:00.000                             : en:
00:01:49.651                             : en:
00:02:57.051                             : en:
00:09:20.685                             : en:
00:14:18.357                             : en:
00:17:43.812                             : en:
00:23:09.971                             : en:
00:29:55.418                             : en:
00:32:12.931                             : en:
00:35:52.817                             : en:
00:41:33.991                             : en:
00:45:23.929                             : en:
00:55:02.048                             : en:
01:02:56.689                             : en:
01:09:49.727                             : en:
01:20:48.969                             : en:
01:28:30.513                             : en:
01:30:50.987                             : en:
Скріншоти








Джерело:
Особиста оцінка: 7 - моїй подрузі не сподобалося


Золотий реліз (завантажене не впливає на рейтинг)
 Трекер:    Зареєстрований   

Завантажити / скачати фільм українською



відео для новачків



 Зареєстрований:   2020-05-22 11:40
 Розмір:   27.29 GB 
 Оцінка фільму:   9.7/10 (Голосів: 14)
 ЗАЛИШАЙТЕСЬ ЯКОМОГА ДОВШЕ НА РОЗДАЧІ! ЗАВАНТАЖИВ САМ - ДАЙ ЗАВАНТАЖИТИ ІНШИМ!
   
taurus 
Свій


З нами з: 04.04.11
Востаннє: 23.09.20
Повідомлень: 124

2020-05-06 21:13  
Нове видання від Criterion одного з найкращих, на мій смак, фільмів десятиріччя. Жаль, що чудовий артистичний дубляж (кращий, ніж російський) за шість років так і не отримав гідного сучасного формату звуку.
KeryaS 
VIP


З нами з: 01.09.14
Востаннє: 24.09.20
Повідомлень: 303

2020-05-06 21:31  
Жахливий фільм, один з небагатьох, які я не осилив до кінця. Не уявляю де тут знайшли комедію.
21jumpstreet 
VIP


З нами з: 03.07.12
Востаннє: 25.09.20
Повідомлень: 1237

2020-05-20 12:59  
Є якісніша доріжка
Anonymous 







2020-05-22 11:41  
Заміна аудіо на якісніше.
Ваш часовий пояс: GMT + 2 Години

Нова тема   Відповісти