Боєць / The Fighter (2010) Remux 1080p Ukr/Eng | Sub Ukr/Eng

Нові коментарі

Нова тема   Відповісти
Автор Повідомлення
Anonymous 







2020-05-05 00:20  
Боєць / The Fighter (2010) Remux 1080p Ukr/Eng | Sub Ukr/Eng

Боєць / The Fighter (2010) Remux 1080p Ukr/Eng | Sub Ukr/Eng


Жанр: біографічний, драма, спорт
Країна: США
Кінокомпанія: Closest to the Hole Productions, Fighter, Mandeville Films, Park Entertainment, The, Relativity Media, Weinstein Company
Режисер: Девід О. Расселл / David O. Russell
Актори: Марк Волберґ / Mark Wahlberg, Крістіан Бейл / Christian Bale, Емі Адамс / Amy Adams, Мелісса Лео / Melissa Leo, Мікі О'Кіф / Mickey O'Keefe, Джек Маꥳ / Jack McGee, Мелісса МакМікін / Melissa McMeekin, Б'янка Хантер / Bianca Hunter, Еріка МакДермот / Erica McDermott, Джилл Куіґ / Jill Quigg, Дендрі Тейлор / Dendrie Taylor, Кейт Б. О'Брайен / Kate B. O'Brien, Дженна Ламіа / Jenna Lamia, Франк Рензуллі / Frank Renzulli, Пол Кемпбелл / Paul Campbell

Сюжет:
Дікі Еклунд - гордість ірландських мешканців робітничих районів Ловелла, штат Массачусетс, боксер, який мріє про чемпіонський пояс і має на нього всі шанси. В тіні Дікової слави живе Мікі - його брат і спаринг-партнер, якому, здається, навіть нема чого мріяти про щось більше, за подавання рушничка чемпіонові. Проте, зазнавши принизливої поразки на чемпіонаті від Рея Леонарда, Дікі занурюється в пітьму наркоманії, алкоголізму та насильства, зрештою потрапляючи до в'язниці. Мікі ж, у відчаї, виходить на ринг, намагаючись врятувати від злиднів сім'ю.

Тривалість: 01:55:39
Якість: Remux 1080p

Відео:
кодек:
розмір кадру: 1920 x 1080
бітрейт: 30.1 мб/с

Аудіо # 1:
мова: українська
переклад: багатоголосий закадровий (псевдо дубляж)
кодек: 2.0
бітрейт: 192 кб/с
Фільм перекладено і озвучено на студії Tretyakoff production на замовлення Aurora Distribution

Аудіо # 2:
мова: англійська
переклад: оригінал
кодек: 5.1
бітрейт: 640 кб/с

Аудіо # 3:
мова: англійська
переклад: оригінал
кодек: -HD MA 5.1
бітрейт: 3509 кб/с

Субтитри # 1: (Full)
мова: українська
тип: програмні (м'які)
формат: *.srt

Субтитри # 2-3: (Full, SDH)
мова: англійська
тип: програмні (м'які)
формат: *.srt


Info
Код:
General
Complete name                            : The Fighter (2010) Remux 1080p [UKR_ENG] [Video_Hurtom].
Format                                   :
Format version                           : Version 4
File size                                : 27.8 GiB
Duration                                 : 1 h 55 min
Overall bit rate mode                    : Variable
Overall bit rate                         : 34.5 Mb/s
Movie name                               : Боєць / The Fighter (2010)
Encoded date                             : UTC 2020-05-04 19:13:00
Writing application                      : v30.1.0 ('Forever And More') 64-bit
Writing library                          : libebml v1.3.6 + v1.4.9
Cover                                    : Yes
Attachments                              : cover.jpg

Video
ID                                       : 1
Format                                   : AVC
Format/Info                              : Advanced Video Codec
Format profile                           : [email protected]
Format settings                          : CABAC / 4 Ref Frames
Format settings, CABAC                   : Yes
Format settings, RefFrames               : 4 frames
Codec ID                                 : V_MPEG4/ISO/AVC
Duration                                 : 1 h 55 min
Bit rate mode                            : Variable
Bit rate                                 : 30.1 Mb/s
Maximum bit rate                         : 39.0 Mb/s
Width                                    : 1 920 pixels
Height                                   : 1 080 pixels
Display aspect ratio                     : 16:9
Frame rate mode                          : Constant
Frame rate                               : 23.976 (24000/1001) FPS
Color space                              : YUV
Chroma subsampling                       : 4:2:0
Bit depth                                : 8 bits
Scan type                                : Progressive
Bits/(Pixel*Frame)                       : 0.606
Stream size                              : 24.3 GiB (87%)
Language                                 : English
Default                                  : Yes
Forced                                   : No
Color range                              : Limited
Color primaries                          : BT.709
Transfer characteristics                 : BT.709
Matrix coefficients                      : BT.709

Audio #1
ID                                       : 2
Format                                   : AC-3
Format/Info                              : Audio Coding 3
Commercial name                          : Dolby Digital
Codec ID                                 : A_AC3
Duration                                 : 1 h 55 min
Bit rate mode                            : Constant
Bit rate                                 : 192 kb/s
Channel(s)                               : 2 channels
Channel layout                           : L R
Sampling rate                            : 48.0 kHz
Frame rate                               : 31.250 FPS (1536 SPF)
Bit depth                                : 16 bits
Compression mode                         : Lossy
Stream size                              : 159 MiB (1%)
Title                                    : 2.0 | 192
Language                                 : Ukrainian
Service kind                             : Complete Main
Default                                  : Yes
Forced                                   : No

Audio #2
ID                                       : 3
Format                                   : AC-3
Format/Info                              : Audio Coding 3
Commercial name                          : Dolby Digital
Codec ID                                 : A_AC3
Duration                                 : 1 h 55 min
Bit rate mode                            : Constant
Bit rate                                 : 640 kb/s
Channel(s)                               : 6 channels
Channel layout                           : L R C LFE Ls Rs
Sampling rate                            : 48.0 kHz
Frame rate                               : 31.250 FPS (1536 SPF)
Bit depth                                : 16 bits
Compression mode                         : Lossy
Stream size                              : 529 MiB (2%)
Title                                    : 5.1 | 640
Language                                 : English
Service kind                             : Complete Main
Default                                  : No
Forced                                   : No

Audio #3
ID                                       : 4
Format                                   : XLL
Format/Info                              : Digital Theater Systems
Commercial name                          : -HD Master Audio
Codec ID                                 : A_DTS
Duration                                 : 1 h 55 min
Bit rate mode                            : Variable
Bit rate                                 : 3 509 kb/s
Channel(s)                               : 6 channels
Channel layout                           : C L R Ls Rs LFE
Sampling rate                            : 48.0 kHz
Frame rate                               : 93.750 FPS (512 SPF)
Bit depth                                : 24 bits
Compression mode                         : Lossless
Stream size                              : 2.83 GiB (10%)
Title                                    : -HD MA 5.1 | 3509
Language                                 : English
Default                                  : No
Forced                                   : No

Text #1
ID                                       : 5
Format                                   : UTF-8
Codec ID                                 : S_TEXT/UTF8
Codec ID/Info                            : UTF-8 Plain Text
Duration                                 : 1 h 51 min
Bit rate                                 : 139 b/s
Count of elements                        : 1383
Stream size                              : 114 KiB (0%)
Title                                    : Full
Language                                 : Ukrainian
Default                                  : Yes
Forced                                   : No

Text #2
ID                                       : 6
Format                                   : UTF-8
Codec ID                                 : S_TEXT/UTF8
Codec ID/Info                            : UTF-8 Plain Text
Duration                                 : 1 h 51 min
Bit rate                                 : 83 b/s
Count of elements                        : 1665
Stream size                              : 68.0 KiB (0%)
Title                                    : Full
Language                                 : English
Default                                  : No
Forced                                   : No

Text #3
ID                                       : 7
Format                                   : UTF-8
Codec ID                                 : S_TEXT/UTF8
Codec ID/Info                            : UTF-8 Plain Text
Duration                                 : 1 h 51 min
Bit rate                                 : 99 b/s
Count of elements                        : 1856
Stream size                              : 80.9 KiB (0%)
Title                                    : SDH
Language                                 : English
Default                                  : No
Forced                                   : No
Світлини



Джерело:
Особиста оцінка: 8 - мені сподобалося


Золотий реліз (завантажене не впливає на рейтинг)
 Трекер:    Зареєстрований   

Завантажити / скачати фільм українською



відео для новачків



 Зареєстрований:   2020-05-05 00:20
 Розмір:   27.84 GB 
 Оцінка фільму:   9.8/10 (Голосів: 4)
 ЗАЛИШАЙТЕСЬ ЯКОМОГА ДОВШЕ НА РОЗДАЧІ! ЗАВАНТАЖИВ САМ - ДАЙ ЗАВАНТАЖИТИ ІНШИМ!
   
Інші релізи
   Боєць / The Fighter (2010) 1080p Ukr/Eng | Sub Ukr/Eng antik_2008  1 / 0   12.13 GB   2020-05-04 14:01 
   Боєць / The Fighter (2010) 1080p H.265 Ukr/Eng | Sub Ukr/Eng -Star-Lord-  0 / 1   11.17 GB   2020-05-04 00:08 
   Боєць / The Fighter (2010) Ukr | Sub Ukr/Eng patriot2305  0 / 0   1.25 GB   2012-08-19 17:07 
   Боєць / The Fighter (2010) 720р Ukr/Eng | Sub Ukr/Eng 11FrYkT  3 / 0   7.91 GB   2012-08-01 18:25 
   Боєць / The Fighter (2010) AVC Ukr/Eng | Sub Ukr/Eng Gelios  7 / 0   2.7 GB   2012-08-01 15:31 
   Боєць / The Fighter (2010) Ukr/Eng | Sub Ukr/Eng karvai0  4 / 0   2.03 GB   2012-08-01 15:30 
Anonymous 







2020-05-29 20:12  
Гарна гра акторів. 8 / 10
Ваш часовий пояс: GMT + 2 Години

Нова тема   Відповісти