Здавайся або розплатися / The Big Gundown / La resa dei conti (1966) AVC Ukr/Ita

Нові коментарі

Нова тема   Відповісти
Автор Повідомлення
Arsenfpu 
Відео Гуртом - фільмокрай
Відео Гуртом - фільмокрай


З нами з: 30.04.09
Востаннє: 11.07.20
Повідомлень: 7051

2020-05-04 23:36  
Здавайся або розплатися / The Big Gundown / La resa dei conti (1966) AVC Ukr/Ita

Здавайся або розплатися / The Big Gundown / La resa dei conti (1966) AVC Ukr/Ita


Жанр: вестерн
Країна: Італія, Іспанія



Кінокомпанія: Produzioni Europee Associati (PEA)
Режисер: Серджо Солліма
Актори: Лі Ван Кліф, Томас Міліан, Луіса Рівеллі, Фернандо Санчо

Сюжет:
Кращий стрілець Техасу, знаменитий мисливець за головами Джонатан Корбетт вирішує відійти від справ і балотуватися в Сенат. Місцева еліта, в особі магната Брокстона і австрійського барона Фон Шуленберга обіцяє йому всесторонню підтримку в обмін на допомогу з будівництвом залізниці, яка веда до Мексики. Проте перед цим Корбетту доручають останнє завдання - знайти того, хто зґвалтував і вбив дванадцятирічну дівчинку.


Тривалість: 01:50:18
Якість:
Відео:
кодек:
розмір кадру: 1 024 х 432
бітрейт: 2 399 кб/с

Аудіо # 1:
мова: українська
переклад: багатоголосий закадровий
кодек: 2.0
бітрейт: 192 кб/с
примітка: озвучення здійснене поверх англійської, оригінал - італійська, тому часом може траплятися невеликий розсинхрон

Аудіо # 2:
мова: італійська
переклад: оригінал
кодек: 2.0
бітрейт: 192 кб/с
Скріншоти














Про файл
General
Unique ID : 69471775362327731622960212866826349279 (0x3443C6F9981C96D4E94C318DB2C9AADF)
Complete name : C:\La Resa Dei Conti (1966) [Ukr,Ita] AVC [Hurtom].
Format :
Format version : Version 4 / Version 2
File size : 2.15 GiB
Duration : 1 h 50 min
Overall bit rate : 2 785 kb/s
Movie name : Здавайся або розплатися / The Big Gundown / La resa dei conti (1966)
Encoded date : UTC 2020-05-04 18:43:14
Writing application : v21.0.0 ('Tardigrades Will Inherit The Earth') 32-bit
Writing library : libebml v1.3.5 + v1.4.8
Cover : Yes
Attachments : cover.jpg

Video
ID : 1
Format : AVC
Format/Info : Advanced Video Codec
Format profile : [email protected]
Format settings, CABAC : Yes
Format settings, ReFrames : 4 frames
Codec ID : V_MPEG4/ISO/AVC
Duration : 1 h 50 min
Bit rate : 2 399 kb/s
Width : 1 024 pixels
Height : 432 pixels
Display aspect ratio : 2.40:1
Frame rate mode : Constant
Frame rate : 23.976 (24000/1001) FPS
Color space : YUV
Chroma subsampling : 4:2:0
Bit depth : 8 bits
Scan type : Progressive
Bits/(Pixel*Frame) : 0.226
Stream size : 1.85 GiB (86%)
Writing library : core 157 r2935 545de2f
Encoding settings : cabac=1 / ref=3 / deblock=1:-1:-1 / analyse=0x3:0x113 / me=hex / subme=7 / psy=1 / psy_rd=1.00:0.15 / mixed_ref=1 / me_range=16 / chroma_me=1 / trellis=1 / 8x8dct=1 / cqm=0 / deadzone=21,11 / fast_pskip=1 / chroma_qp_offset=-3 / threads=12 / lookahead_threads=2 / sliced_threads=0 / nr=0 / decimate=1 / interlaced=0 / bluray_compat=0 / constrained_intra=0 / bframes=3 / b_pyramid=2 / b_adapt=1 / b_bias=0 / direct=1 / weightb=1 / open_gop=0 / weightp=2 / keyint=240 / keyint_min=23 / scenecut=40 / intra_refresh=0 / rc_lookahead=40 / rc=2pass / mbtree=1 / bitrate=2399 / ratetol=1.0 / qcomp=0.60 / qpmin=0 / qpmax=69 / qpstep=4 / cplxblur=20.0 / qblur=0.5 / ip_ratio=1.40 / aq=1:1.00
Default : Yes
Forced : No

Audio #1
ID : 2
Format : AC-3
Format/Info : Audio Coding 3
Mode extension : CM (complete main)
Format settings, Endianness : Big
Codec ID : A_AC3
Duration : 1 h 50 min
Bit rate mode : Constant
Bit rate : 192 kb/s
Channel(s) : 2 channels
Channel positions : Front: L R
Sampling rate : 48.0 kHz
Frame rate : 31.250 FPS (1536 spf)
Compression mode : Lossy
Stream size : 151 MiB (7%)
Title : Інтер
Language : Ukrainian
Default : Yes
Forced : Yes

Audio #2
ID : 3
Format : AC-3
Format/Info : Audio Coding 3
Mode extension : CM (complete main)
Format settings, Endianness : Big
Codec ID : A_AC3
Duration : 1 h 50 min
Bit rate mode : Constant
Bit rate : 192 kb/s
Channel(s) : 2 channels
Channel positions : Front: L R
Sampling rate : 48.0 kHz
Frame rate : 31.250 FPS (1536 spf)
Compression mode : Lossy
Stream size : 151 MiB (7%)
Language : Italian
Default : No
Forced : No
Джерело:
За українську доріжку дякую п. kryk-v.ya., olgaya, robotron005
Особиста оцінка: не дивився


Срібний реліз (на рейтинг впливає 50% завантаженого)
 Трекер:    Зареєстрований   

Завантажити / скачати фільм українською



відео для новачків



 Зареєстрований:   2020-05-04 23:36
 Розмір:   2.15 GB 
 Оцінка фільму:   9.2/10 (Голосів: 9)
   
kryk-v.ya. 
Попереджень: 1
Попереджень: 1 


З нами з: 14.02.14
Востаннє: 11.07.20
Повідомлень: 2112

2020-05-05 20:40  
Просто суперовий вестерн...
dreamer 
VIP


З нами з: 10.05.08
Востаннє: 09.07.20
Повідомлень: 646

2020-05-12 11:53  
чудова стрічка ..дякую !
Ваш часовий пояс: GMT + 2 Години

Нова тема   Відповісти