Боєць / The Fighter (2010) 1080p Ukr/Eng | Sub Ukr/Eng

Нові коментарі

Нова тема   Відповісти
Автор Повідомлення
Anonymous 







2020-05-04 14:01  
Боєць / The Fighter (2010) 1080p Ukr/Eng | Sub Ukr/Eng

Боєць / The Fighter (2010) 1080p Ukr/Eng | Sub Ukr/Eng


Жанр: біографічний, драма, спорт
Країна: США
Кінокомпанія: Closest to the Hole Productions, Fighter, Mandeville Films, Park Entertainment, The, Relativity Media, Weinstein Company
Режисер: Девід О. Расселл / David O. Russell
Актори: Марк Волберґ / Mark Wahlberg, Крістіан Бейл / Christian Bale, Емі Адамс / Amy Adams, Мелісса Лео / Melissa Leo, Мікі О'Кіф / Mickey O'Keefe, Джек Маꥳ / Jack McGee, Мелісса МакМікін / Melissa McMeekin, Б'янка Хантер / Bianca Hunter, Еріка МакДермот / Erica McDermott, Джилл Куіґ / Jill Quigg, Дендрі Тейлор / Dendrie Taylor, Кейт Б. О'Брайен / Kate B. O'Brien, Дженна Ламіа / Jenna Lamia, Франк Рензуллі / Frank Renzulli, Пол Кемпбелл / Paul Campbell

Сюжет:
Дікі Еклунд - гордість ірландських мешканців робітничих районів Ловелла, штат Массачусетс, боксер, який мріє про чемпіонський пояс і має на нього всі шанси. В тіні Дікової слави живе Мікі - його брат і спаринг-партнер, якому, здається, навіть нема чого мріяти про щось більше, за подавання рушничка чемпіонові. Проте, зазнавши принизливої поразки на чемпіонаті від Рея Леонарда, Дікі занурюється в пітьму наркоманії, алкоголізму та насильства, зрештою потрапляючи до в'язниці. Мікі ж, у відчаї, виходить на ринг, намагаючись врятувати від злиднів сім'ю.

Тривалість: 01:55:38
Якість: 1080p

Відео:
кодек:
розмір кадру: 1920 x 800
бітрейт: 13.3 мб/с

Аудіо # 1:
мова: українська
переклад: багатоголосий закадровий (псевдо дубляж)
кодек: 2.0
бітрейт: 192 кб/с
Фільм перекладено і озвучено на студії Tretyakoff production на замовлення Aurora Distribution

Аудіо # 2:
мова: англійська
переклад: оригінал
кодек: 5.1
бітрейт: 1510 кб/с

Субтитри # 1: (Full)
мова: українська
тип: програмні (м'які)
формат: *.srt

Субтитри # 2-3: (Full, SDH)
мова: англійська
тип: програмні (м'які)
формат: *.srt


Info
Код:
General
Complete name                            : The Fighter (2010) 1080p [Ukr_Eng] [ViDeO_Hurtom].
Format                                   :
Format version                           : Version 4
File size                                : 12.1 GiB
Duration                                 : 1 h 55 min
Overall bit rate                         : 15.0 Mb/s
Movie name                               : Боєць / The Fighter (2010)
Encoded date                             : UTC 2020-05-04 10:01:42
Writing application                      : v30.1.0 ('Forever And More') 64-bit
Writing library                          : libebml v1.3.6 + v1.4.9
Cover                                    : Yes
Attachments                              : cover.jpg

Video
ID                                       : 1
Format                                   : AVC
Format/Info                              : Advanced Video Codec
Format profile                           : [email protected]
Format settings                          : CABAC / 4 Ref Frames
Format settings, CABAC                   : Yes
Format settings, RefFrames               : 4 frames
Codec ID                                 : V_MPEG4/ISO/AVC
Duration                                 : 1 h 55 min
Bit rate                                 : 13.3 Mb/s
Width                                    : 1 920 pixels
Height                                   : 800 pixels
Display aspect ratio                     : 2.40:1
Frame rate mode                          : Constant
Frame rate                               : 23.976 FPS
Color space                              : YUV
Chroma subsampling                       : 4:2:0
Bit depth                                : 8 bits
Scan type                                : Progressive
Bits/(Pixel*Frame)                       : 0.362
Stream size                              : 10.8 GiB (89%)
Writing library                          : core 98 r1649 c54c47d
Encoding settings                        : cabac=1 / ref=4 / deblock=1:-3:-3 / analyse=0x3:0x113 / me=umh / subme=9 / psy=1 / psy_rd=1.10:0.00 / mixed_ref=1 / me_range=32 / chroma_me=1 / trellis=2 / 8x8dct=1 / cqm=0 / deadzone=21,11 / fast_pskip=0 / chroma_qp_offset=-4 / threads=12 / sliced_threads=0 / nr=0 / decimate=0 / interlaced=0 / constrained_intra=0 / bframes=6 / b_pyramid=2 / b_adapt=2 / b_bias=0 / direct=3 / weightb=1 / weightp=2 / keyint=250 / keyint_min=25 / scenecut=40 / intra_refresh=0 / rc_lookahead=48 / rc=2pass / mbtree=1 / bitrate=13330 / ratetol=1.0 / qcomp=0.60 / qpmin=10 / qpmax=51 / qpstep=4 / cplxblur=20.0 / qblur=0.5 / ip_ratio=1.40 / aq=1:0.80
Language                                 : English
Default                                  : Yes
Forced                                   : No

Audio #1
ID                                       : 2
Format                                   : AC-3
Format/Info                              : Audio Coding 3
Commercial name                          : Dolby Digital
Codec ID                                 : A_AC3
Duration                                 : 1 h 55 min
Bit rate mode                            : Constant
Bit rate                                 : 192 kb/s
Channel(s)                               : 2 channels
Channel layout                           : L R
Sampling rate                            : 48.0 kHz
Frame rate                               : 31.250 FPS (1536 SPF)
Bit depth                                : 16 bits
Compression mode                         : Lossy
Stream size                              : 159 MiB (1%)
Title                                    : 2.0 | 192
Language                                 : Ukrainian
Service kind                             : Complete Main
Default                                  : Yes
Forced                                   : No

Audio #2
ID                                       : 3
Format                                   :
Format/Info                              : Digital Theater Systems
Codec ID                                 : A_DTS
Duration                                 : 1 h 55 min
Bit rate mode                            : Constant
Bit rate                                 : 1 510 kb/s
Channel(s)                               : 6 channels
Channel layout                           : C L R Ls Rs LFE
Sampling rate                            : 48.0 kHz
Frame rate                               : 93.750 FPS (512 SPF)
Bit depth                                : 24 bits
Compression mode                         : Lossy
Stream size                              : 1.22 GiB (10%)
Title                                    : 5.1 | 1510
Language                                 : English
Default                                  : No
Forced                                   : No

Text #1
ID                                       : 4
Format                                   : UTF-8
Codec ID                                 : S_TEXT/UTF8
Codec ID/Info                            : UTF-8 Plain Text
Duration                                 : 1 h 51 min
Bit rate                                 : 139 b/s
Count of elements                        : 1383
Stream size                              : 114 KiB (0%)
Title                                    : Full
Language                                 : Ukrainian
Default                                  : Yes
Forced                                   : No

Text #2
ID                                       : 5
Format                                   : UTF-8
Codec ID                                 : S_TEXT/UTF8
Codec ID/Info                            : UTF-8 Plain Text
Duration                                 : 1 h 51 min
Bit rate                                 : 83 b/s
Count of elements                        : 1665
Stream size                              : 68.0 KiB (0%)
Title                                    : Full
Language                                 : English
Default                                  : No
Forced                                   : No

Text #3
ID                                       : 6
Format                                   : UTF-8
Codec ID                                 : S_TEXT/UTF8
Codec ID/Info                            : UTF-8 Plain Text
Duration                                 : 1 h 51 min
Bit rate                                 : 99 b/s
Count of elements                        : 1856
Stream size                              : 80.9 KiB (0%)
Title                                    : SDH
Language                                 : English
Default                                  : No
Forced                                   : No

Menu
00:00:00.000                             : :Chapter 01
00:07:11.180                             : :Chapter 02
00:16:34.201                             : :Chapter 03
00:22:32.351                             : :Chapter 04
00:28:34.754                             : :Chapter 05
00:36:20.678                             : :Chapter 06
00:43:16.802                             : :Chapter 07
00:51:54.945                             : :Chapter 08
01:00:48.144                             : :Chapter 09
01:07:08.274                             : :Chapter 10
01:13:04.463                             : :Chapter 11
01:20:43.505                             : :Chapter 12
01:25:03.890                             : :Chapter 13
01:33:54.045                             : :Chapter 14
01:40:13.757                             : :Chapter 15
01:50:18.528                             : :Chapter 16
Світлини





Джерело:
Особиста оцінка: 8 - мені сподобалося


 Трекер:    Зареєстрований   

Завантажити / скачати фільм українською



відео для новачків



 Зареєстрований:   2020-05-04 14:01
 Розмір:   12.13 GB 
 Оцінка фільму:   9.8/10 (Голосів: 4)
 ЗАЛИШАЙТЕСЬ ЯКОМОГА ДОВШЕ НА РОЗДАЧІ! ЗАВАНТАЖИВ САМ - ДАЙ ЗАВАНТАЖИТИ ІНШИМ!
   
Інші релізи
   Боєць / The Fighter (2010) Remux 1080p Ukr/Eng | Sub Ukr/Eng antik_2008  1 / 0   27.84 GB   2020-05-05 00:20 
   Боєць / The Fighter (2010) 1080p H.265 Ukr/Eng | Sub Ukr/Eng -Star-Lord-  0 / 0   11.17 GB   2020-05-04 00:08 
   Боєць / The Fighter (2010) Ukr | Sub Ukr/Eng patriot2305  0 / 0   1.25 GB   2012-08-19 17:07 
   Боєць / The Fighter (2010) 720р Ukr/Eng | Sub Ukr/Eng 11FrYkT  2 / 0   7.91 GB   2012-08-01 18:25 
   Боєць / The Fighter (2010) AVC Ukr/Eng | Sub Ukr/Eng Gelios  4 / 0   2.7 GB   2012-08-01 15:31 
   Боєць / The Fighter (2010) Ukr/Eng | Sub Ukr/Eng karvai0  4 / 0   2.03 GB   2012-08-01 15:30 
Ваш часовий пояс: GMT + 2 Години

Нова тема   Відповісти