Замкнені з убивцею / Locked In (2017) AVC

Нові коментарі

Нова тема   Відповісти
Автор Повідомлення
Arsenfpu 
Відео Гуртом - фільмокрай
Відео Гуртом - фільмокрай


З нами з: 30.04.09
Востаннє: 04.07.20
Повідомлень: 7031

2020-05-04 09:28  
Замкнені з убивцею / Locked In (2017) AVC

Замкнені з убивцею / Locked In (2017) AVC


Жанр: трилер
Країна: США



Кінокомпанія: Sunshine Films Florida
Режисер: Даміан Роман
Актори: Джозі Девіс, Кейлі Рівера, Джеймс Фуертес, Ян Бамберг

Сюжет:
З тих пір як її батька вбили, Тейлор змушена піклуватися про свою матір, хвору на агорафобію, і доглядати за сімейною фермою. Готова розпочати власне життя, вона хоче сказати матері, що збирається поїхати зі своїм хлопцем Блейком на початку нового навчального року. Однак її плани зупиняються, коли насувається буря, яка загрожує зруйнувати ферму. Коли вона готується до шторму, в двері стукає незнайомець, запитуючи, де зупинитися, тому що у нього закінчився бензин. Аби не допустити довіряти незнайомцю. Тейлор починає підозрювати, що він пов'язаний зі смертю її батька. Тепер вона повинна витримати бурю, зберігаючи свою матір в безпеці від цієї таємничої людини.


Тривалість: 01:26:56
Якість:
Відео:
кодек:
розмір кадру: 1 024 х 576
бітрейт: 1 999 кб/с

Аудіо:
мова: українська
переклад: багатоголосий закадровий Індиго ТБ
кодек: 2.0
бітрейт: 192 кб/с
Скріншоти














Про файл
General
Unique ID : 281948842462029162746842517213125868467 (0xD41D5F31732661E3CD777A921D2CFBB3)
Complete name : C:\Locked In (2017) AVC [Hurtom].
Format :
Format version : Version 4 / Version 2
File size : 1.33 GiB
Duration : 1 h 26 min
Overall bit rate : 2 189 kb/s
Movie name : Замкнені з убивцею / Locked In (2017)
Encoded date : UTC 2020-05-07 18:14:57
Writing application : v21.0.0 ('Tardigrades Will Inherit The Earth') 32-bit
Writing library : libebml v1.3.5 + v1.4.8
Cover : Yes
Attachments : cover.jpg

Video
ID : 1
Format : AVC
Format/Info : Advanced Video Codec
Format profile : [email protected]
Format settings, CABAC : Yes
Format settings, ReFrames : 4 frames
Codec ID : V_MPEG4/ISO/AVC
Duration : 1 h 26 min
Bit rate : 1 999 kb/s
Width : 1 024 pixels
Height : 576 pixels
Display aspect ratio : 16:9
Frame rate mode : Constant
Frame rate : 23.976 (24000/1001) FPS
Color space : YUV
Chroma subsampling : 4:2:0
Bit depth : 8 bits
Scan type : Progressive
Bits/(Pixel*Frame) : 0.141
Stream size : 1.21 GiB (91%)
Writing library : core 157 r2935 545de2f
Encoding settings : cabac=1 / ref=3 / deblock=1:-1:-1 / analyse=0x3:0x113 / me=hex / subme=7 / psy=1 / psy_rd=1.00:0.15 / mixed_ref=1 / me_range=16 / chroma_me=1 / trellis=1 / 8x8dct=1 / cqm=0 / deadzone=21,11 / fast_pskip=1 / chroma_qp_offset=-3 / threads=12 / lookahead_threads=2 / sliced_threads=0 / nr=0 / decimate=1 / interlaced=0 / bluray_compat=0 / constrained_intra=0 / bframes=3 / b_pyramid=2 / b_adapt=1 / b_bias=0 / direct=1 / weightb=1 / open_gop=0 / weightp=2 / keyint=240 / keyint_min=23 / scenecut=40 / intra_refresh=0 / rc_lookahead=40 / rc=2pass / mbtree=1 / bitrate=1999 / ratetol=1.0 / qcomp=0.60 / qpmin=0 / qpmax=69 / qpstep=4 / cplxblur=20.0 / qblur=0.5 / ip_ratio=1.40 / aq=1:1.00
Default : Yes
Forced : No

Audio
ID : 2
Format : AC-3
Format/Info : Audio Coding 3
Mode extension : CM (complete main)
Format settings, Endianness : Big
Codec ID : A_AC3
Duration : 1 h 26 min
Bit rate mode : Constant
Bit rate : 192 kb/s
Channel(s) : 2 channels
Channel positions : Front: L R
Sampling rate : 48.0 kHz
Frame rate : 31.250 FPS (1536 spf)
Compression mode : Lossy
Stream size : 119 MiB (9%)
Title : Індиго ТБ
Language : Ukrainian
Default : Yes
Forced : No
Джерело:
За допомогу із підготовкою релізу дякую п. ssTAss, Neytreenor
Особиста оцінка: не дивився


 Трекер:    Зареєстрований   

Завантажити / скачати фільм українською



відео для новачків



 Зареєстрований:   2020-05-07 21:45
 Розмір:   1.33 GB 
 Оцінка фільму:   6/10 (Голосів: 6)
   
bot 
робот


З нами з: 30.09.07
Востаннє: 26.05.05
Повідомлень: 24938

2020-05-07 21:44  
Тему перенесено з Анонси релізів до форуму Фільми


Arsenfpu

Ваш часовий пояс: GMT + 2 Години

Нова тема   Відповісти