Перебіжчик / Der Überläufer / The Turncoat (2020) AVC Ukr/Ger

Нові коментарі

Нова тема   Відповісти
Автор Повідомлення
Arsenfpu 
Відео Гуртом - фільмокрай
Відео Гуртом - фільмокрай


З нами з: 30.04.09
Востаннє: 27.05.20
Повідомлень: 6921

2020-05-04 08:32  
Перебіжчик / Der Überläufer / The Turncoat (2020) AVC Ukr/Ger

Перебіжчик / Der Überläufer / The Turncoat (2020) AVC Ukr/Ger


Жанр: драма, історичний, воєнний
Країна: Німеччина



Кінокомпанія: Dreamtool Entertainment, Norddeutscher Rundfunk (NDR), ARD Degeto Film
Режисер: Флоріан Галленбергер
Актори: Янніс Нівенер, Райнер Бок, Бьярне Медел, Флоріан Лукас, Катаріна Шюттлер, Ульріх Тукур

Сюжет:
1944. Волтер Проска - молодий солдат вермахту, який починає ставити під сумнів мету війни, хто справжній ворог і чи повинен бути його справжній обов'язок перед батьківщиною чи власною совістю.


Тривалість: 00:44:31 + 00:40:08 + 00:44:00 + 00:47:09
Якість:
Відео:
кодек:
розмір кадру: 1 024 х 576
бітрейт: 2 200 кб/с

Аудіо # 1:
мова: українська
переклад: професійний дубльований (майже)
кодек: 2.0
бітрейт: 192 кб/с
примітка: перша хвилина 2, 3 та 4-ої частини містить коротку розповідь про зміст попередніх частин; ці проміжки залишились неозвученими, оскільки телеканал показував фільм як одне ціле.

Аудіо # 2:
мова: німецька
переклад: оригінал
кодек: 2.0
бітрейт: 192 кб/с
Скріншоти














Про файл
General
Unique ID : 125193148133074954750737689579690324787 (0x5E2F52C29E9EDFC7468B5793C12AF333)
Format :
Format version : Version 4 / Version 2
File size : 824 MiB
Duration : 44 min
Overall bit rate : 2 587 kb/s
Movie name : Перебіжчик / Der Überläufer / The Turncoat (2020)
Encoded date : UTC 2020-05-11 06:07:55
Writing application : v21.0.0 ('Tardigrades Will Inherit The Earth') 32-bit
Writing library : libebml v1.3.5 + v1.4.8

Video
ID : 1
Format : AVC
Format/Info : Advanced Video Codec
Format profile : [email protected]
Format settings, CABAC : Yes
Format settings, ReFrames : 4 frames
Codec ID : V_MPEG4/ISO/AVC
Duration : 44 min
Bit rate : 2 200 kb/s
Width : 1 024 pixels
Height : 576 pixels
Display aspect ratio : 16:9
Frame rate mode : Constant
Frame rate : 50.000 FPS
Color space : YUV
Chroma subsampling : 4:2:0
Bit depth : 8 bits
Scan type : Progressive
Bits/(Pixel*Frame) : 0.075
Stream size : 700 MiB (85%)
Writing library : core 157 r2935 545de2f
Encoding settings : cabac=1 / ref=3 / deblock=1:-1:-1 / analyse=0x3:0x113 / me=hex / subme=7 / psy=1 / psy_rd=1.00:0.15 / mixed_ref=1 / me_range=16 / chroma_me=1 / trellis=1 / 8x8dct=1 / cqm=0 / deadzone=21,11 / fast_pskip=1 / chroma_qp_offset=-3 / threads=12 / lookahead_threads=2 / sliced_threads=0 / nr=0 / decimate=1 / interlaced=0 / bluray_compat=0 / constrained_intra=0 / bframes=3 / b_pyramid=2 / b_adapt=1 / b_bias=0 / direct=1 / weightb=1 / open_gop=0 / weightp=2 / keyint=500 / keyint_min=50 / scenecut=40 / intra_refresh=0 / rc_lookahead=40 / rc=2pass / mbtree=1 / bitrate=2200 / ratetol=1.0 / qcomp=0.60 / qpmin=0 / qpmax=69 / qpstep=4 / cplxblur=20.0 / qblur=0.5 / ip_ratio=1.40 / aq=1:1.00
Default : Yes
Forced : No

Audio #1
ID : 2
Format : AC-3
Format/Info : Audio Coding 3
Mode extension : CM (complete main)
Format settings, Endianness : Big
Codec ID : A_AC3
Duration : 44 min
Bit rate mode : Constant
Bit rate : 192 kb/s
Channel(s) : 2 channels
Channel positions : Front: L R
Sampling rate : 48.0 kHz
Frame rate : 31.250 FPS (1536 spf)
Compression mode : Lossy
Stream size : 61.1 MiB (7%)
Title : Інтер
Language : Ukrainian
Default : Yes
Forced : Yes

Audio #2
ID : 3
Format : AC-3
Format/Info : Audio Coding 3
Mode extension : CM (complete main)
Format settings, Endianness : Big
Codec ID : A_AC3
Duration : 44 min
Bit rate mode : Constant
Bit rate : 192 kb/s
Channel(s) : 2 channels
Channel positions : Front: L R
Sampling rate : 48.0 kHz
Frame rate : 31.250 FPS (1536 spf)
Compression mode : Lossy
Stream size : 61.1 MiB (7%)
Language : German
Default : No
Forced : No
Джерело:
За постер дякую пану mrgalser
Особиста оцінка: цікаво дивитися


Срібний реліз (на рейтинг впливає 50% завантаженого)
 Трекер:    Зареєстрований   

Завантажити / скачати фільм українською



відео для новачків



 Зареєстрований:   2020-05-11 14:17
 Розмір:   3.18 GB 
 Оцінка фільму:   8.9/10 (Голосів: 45)
   
bot 
робот


З нами з: 30.09.07
Востаннє: 26.05.05
Повідомлень: 24564

2020-05-11 14:17  
Тему перенесено з Анонси релізів до форуму Фільми


Arsenfpu

swardman 
Новенький


З нами з: 02.01.13
Востаннє: 27.05.20
Повідомлень: 18

2020-05-15 00:10  
Відмінний фільм про відносини, війну і життя та почуття простих людей, втягнутих у цю війну.
chubbchubbs 
Свій


З нами з: 29.03.08
Востаннє: 26.05.20
Повідомлень: 67

2020-05-15 23:16  
swardman
Що таке "відносини"? Школота, коли ви, курва, книжки читатимете?

mosketrem 
Поважний учасник


З нами з: 18.06.11
Востаннє: 27.05.20
Повідомлень: 218

2020-05-15 23:40  
SurFutur 
VIP


З нами з: 12.03.15
Востаннє: 26.05.20
Повідомлень: 445

2020-05-16 00:10  
mosketrem

Відносини можуть бути міжнародними, економічними тощо, а між людьми бувають лише стосунки...

601сан 
Поважний учасник


З нами з: 22.05.12
Востаннє: 27.05.20
Повідомлень: 219

2020-05-17 23:51  
Я думаю Вальтер не раз пошкодував,що не загинув як СОЛДАТ.
Зрадник він і є зрадник а не ПЕРЕБІЖЧИК.
Дякую 8/10.

yura_yura 
Новенький


З нами з: 26.09.13
Востаннє: 24.05.20
Повідомлень: 14

2020-05-21 04:12  
Подивився першу частину... Якась повна дурня... Унтер запитує чи воював Вальтер хоча він добре бачить ленту і знак на кітелі... Або не вірно переклали.
Rgonzo 
Новенький


З нами з: 12.04.12
Востаннє: 27.05.20
Повідомлень: 2

2020-05-26 17:40  
Мені сподобався 9\10
Ваш часовий пояс: GMT + 2 Години

Нова тема   Відповісти