Мінлива хмарність, часом фрикадельки. Дилогія / Cloudy with a Chance of Meatballs. Dilogy (2009/2013) 1080p H.265 Ukr/Eng | Sub Ukr/Eng

Нові коментарі

Нова тема   Відповісти
Автор Повідомлення
Anonymous 







2020-05-04 00:26  
Мінлива хмарність, часом фрикадельки. Дилогія / Cloudy with a Chance of Meatballs. Dilogy (2009/2013) 1080p H.265 Ukr/Eng | Sub Eng

Мінлива хмарність, часом фрикадельки. Дилогія / Cloudy with a Chance of Meatballs. Dilogy (2009/2013) 1080p H.265 Ukr/Eng | Sub Ukr/Eng

1. 2.

1. Мінлива хмарність, часом фрикадельки / Cloudy with a Chance of Meatballs (2009) 1080p H.265 2xUkr/Eng | Sub Ukr/Eng
Мінлива хмарність, часом фрикадельки / Cloudy with a Chance of Meatballs (2009) 1080p H.265 2xUkr/Eng | Sub Ukr/Eng

Мінлива хмарність, часом фрикадельки. Дилогія / Cloudy with a Chance of Meatballs. Dilogy (2009/2013) 1080p H.265 Ukr/Eng | Sub Ukr/Eng


Жанр: анімація, сімейний, комедія
Країна: США
Кінокомпанія: Sony Pictures Animation
Режисер: Кріс Міллер, Філ Лорд
Актори: Білл Хейдер, Анна Феріс, Джеймс Каан, Енді Семберг, Брюс Кемпбелл, Містер Ті, Боббі Дж. Томпсон, Бенджамін Бретт, Ніл Патрік Харріс, Ел Рокер

Сюжет:
Головний герой мультфільму - дивний учений Флінт Локвуд, який завжди хотів винайти щось таке, що зробить його рідне містечко щасливим. І ось, у нього вийшло! Їжі тепер вистачає всім, і вона просто падає з неба, створюючи нові краєвиди навколо: можна милуватися заходом з мальовничих пагорбів з фруктового желе. Але іноді смачні опади у вигляді фрикадельок можуть перетворитися на справжнє торнадо з апетитних, але вже небезпечних спагеті! Геніальному вченому і його друзям належить виправити стан справ в ситому містечку.

Тривалість: 01:29:53
Якість:

Відео:
кодек: H.265 (HEVC)
розмір кадру: 1920 x 818
бітрейт: 5 780 кб/с
бітова глибина: 10 біт

Увага! Перед завантаженням переконайтесь, що ваш пристрій відтворення (та/або ПЗ) підтримує H.265 (HEVC)

Аудіо # 1:
мова: українська
озвучення: професійне дубльоване
кодек: AC-3 5.1
бітрейт: 640 кб/с

Аудіо # 2:
мова: українська
озвучення: двоголосе закадрове
кодек: AC-3 2.0
бітрейт: 192 кб/с

Аудіо # 3:
мова: англійська
озвучення: оригінал
кодек: 5.1
бітрейт: 1510 кб/с

Аудіо # 4:
мова: англійська
озвучення: оригінал | Commentary track with Actor Bill Hader and Writers/Directors Christopher Miller and Phil Lord
кодек: AC-3 2.0
бітрейт: 192 кб/с

Субтитри # 1-2: (Forced, Full from Netflix)
мова: українська
тип: програмні (м'які)
формат: *.srt

Субтитри # 3-4: (Full, Commentary)
мова: англійська
тип: програмні (м'які)
формат: *.srt


Інформація про файл
Код:
General
Unique ID                                : 127831816371456455812823525134402858419 (0x602B83260FB380AC900CC4E1BB402DB3)
Complete name                            : 1. Cloudy with a Chance of Meatballs (2009) 1080p H.265 [2xUKR_ENG] [Hurtom].
Format                                   :
Format version                           : Version 4
File size                                : 5.22 GiB
Duration                                 : 1 h 29 min
Overall bit rate                         : 8 320 kb/s
Movie name                               : Мінлива хмарність, часом фрикадельки / Cloudy with a Chance of Meatballs (2009)
Encoded date                             : UTC 2020-12-06 16:25:37
Writing application                      : v20.0.0 ('I Am The Sun') 64-bit
Writing library                          : libebml v1.3.5 + v1.4.8
Cover                                    : Yes
Attachments                              : Cover.jpg

Video
ID                                       : 1
Format                                   : HEVC
Format/Info                              : High Efficiency Video Coding
Format profile                           : Main [email protected]@High
Codec ID                                 : V_MPEGH/ISO/HEVC
Duration                                 : 1 h 29 min
Bit rate                                 : 5 780 kb/s
Width                                    : 1 920 pixels
Height                                   : 818 pixels
Display aspect ratio                     : 2.35:1
Frame rate mode                          : Constant
Frame rate                               : 23.976 (23976/1000) FPS
Original frame rate                      : 23.976 (24000/1001) FPS
Color space                              : YUV
Chroma subsampling                       : 4:2:0
Bit depth                                : 10 bits
Bits/(Pixel*Frame)                       : 0.154
Stream size                              : 3.63 GiB (69%)
Title                                    : Мінлива хмарність, часом фрикадельки / Cloudy with a Chance of Meatballs (2009)
Writing library                          : x265 3.3+1-g554c887ac:[Windows][MSVC 1924][64 bit] 10bit
Encoding settings                        : cpuid=1111039 / frame-threads=3 / numa-pools=12 / wpp / no-pmode / no-pme / no-psnr / no-ssim / log-level=2 / input-csp=1 / input-res=1920x818 / interlace=0 / total-frames=121259 / level-idc=41 / high-tier=1 / uhd-bd=0 / ref=5 / no-allow-non-conformance / no-repeat-headers / annexb / no-aud / no-hrd / info / hash=0 / no-temporal-layers / open-gop / min-keyint=23 / keyint=240 / gop-lookahead=0 / bframes=12 / b-adapt=2 / b-pyramid / bframe-bias=0 / rc-lookahead=60 / lookahead-slices=4 / scenecut=40 / hist-scenecut=0 / radl=0 / no-splice / no-intra-refresh / ctu=32 / min-cu-size=8 / rect / amp / max-tu-size=32 / tu-inter-depth=4 / tu-intra-depth=4 / limit-tu=1 / rdoq-level=2 / dynamic-rd=0.00 / no-ssim-rd / signhide / no-tskip / nr-intra=0 / nr-inter=0 / no-constrained-intra / no-strong-intra-smoothing / max-merge=4 / limit-refs=2 / limit-modes / me=3 / subme=7 / merange=57 / temporal-mvp / no-frame-dup / no-hme / weightp / weightb / no-analyze-src-pics / deblock=-3:-3 / no-sao / no-sao-non-deblock / rd=6 / selective-sao=0 / no-early-skip / no-rskip / no-fast-intra / no-tskip-fast / no-cu-lossless / no-b-intra / no-splitrd-skip / rdpenalty=0 / psy-rd=2.00 / psy-rdoq=1.00 / no-rd-refine / no-lossless / cbqpoffs=0 / crqpoffs=0 / rc=crf / crf=19.0 / qcomp=0.60 / qpstep=4 / stats-write=0 / stats-read=0 / vbv-maxrate=50000 / vbv-bufsize=50000 / vbv-init=0.9 / crf-max=0.0 / crf-min=0.0 / ipratio=1.40 / pbratio=1.30 / aq-mode=1 / aq-strength=1.00 / no-cutree / zone-count=0 / no-strict-cbr / qg-size=32 / no-rc-grain / qpmax=69 / qpmin=0 / no-const-vbv / sar=1 / overscan=0 / videoformat=5 / range=0 / colorprim=1 / transfer=1 / colormatrix=1 / chromaloc=0 / display-window=0 / cll=0,0 / min-luma=0 / max-luma=1023 / log2-max-poc-lsb=8 / vui-timing-info / vui-hrd-info / slices=1 / no-opt-qp-pps / no-opt-ref-list-length-pps / no-multi-pass-opt-rps / scenecut-bias=0.05 / hist-threshold=0.01 / no-opt-cu-delta-qp / no-aq-motion / no-hdr10 / no-hdr10-opt / no-dhdr10-opt / no-idr-recovery-sei / analysis-reuse-level=0 / analysis-save-reuse-level=0 / analysis-load-reuse-level=0 / scale-factor=0 / refine-intra=0 / refine-inter=0 / refine-mv=1 / refine-ctu-distortion=0 / no-limit-sao / ctu-info=0 / no-lowpass-dct / refine-analysis-type=0 / copy-pic=1 / max-ausize-factor=1.0 / no-dynamic-refine / no-single-sei / no-hevc-aq / no-svt / no-field / qp-adaptation-range=1.00 / no-scenecut-aware-qpconformance-window-offsets / right=0 / bottom=0
Default                                  : Yes
Forced                                   : No
Color range                              : Limited
Color primaries                          : BT.709
Transfer characteristics                 : BT.709
Matrix coefficients                      : BT.709

Audio #1
ID                                       : 2
Format                                   : AC-3
Format/Info                              : Audio Coding 3
Commercial name                          : Dolby Digital
Codec ID                                 : A_AC3
Duration                                 : 1 h 29 min
Bit rate mode                            : Constant
Bit rate                                 : 640 kb/s
Channel(s)                               : 6 channels
Channel layout                           : L R C LFE Ls Rs
Sampling rate                            : 48.0 kHz
Frame rate                               : 31.250 FPS (1536 SPF)
Compression mode                         : Lossy
Stream size                              : 411 MiB (8%)
Title                                    : AC-3 / 5.1 Ch / 640 kbps / DUB / Blu-Ray
Language                                 : Ukrainian
Service kind                             : Complete Main
Default                                  : Yes
Forced                                   : Yes

Audio #2
ID                                       : 3
Format                                   : AC-3
Format/Info                              : Audio Coding 3
Commercial name                          : Dolby Digital
Codec ID                                 : A_AC3
Duration                                 : 1 h 29 min
Bit rate mode                            : Constant
Bit rate                                 : 192 kb/s
Channel(s)                               : 2 channels
Channel layout                           : L R
Sampling rate                            : 48.0 kHz
Frame rate                               : 31.250 FPS (1536 SPF)
Compression mode                         : Lossy
Stream size                              : 123 MiB (2%)
Title                                    : AC-3 / 2.0 Ch / 192 kbps / DVO / Novy Kanal
Language                                 : Ukrainian
Service kind                             : Complete Main
Default                                  : No
Forced                                   : No

Audio #3
ID                                       : 4
Format                                   :
Format/Info                              : Digital Theater Systems
Codec ID                                 : A_DTS
Duration                                 : 1 h 29 min
Bit rate mode                            : Constant
Bit rate                                 : 1 509 kb/s
Channel(s)                               : 6 channels
Channel layout                           : C L R Ls Rs LFE
Sampling rate                            : 48.0 kHz
Frame rate                               : 93.750 FPS (512 SPF)
Bit depth                                : 24 bits
Compression mode                         : Lossy
Stream size                              : 970 MiB (18%)
Title                                    : / 5.1 Ch / 1509 kbps / Original
Language                                 : English
Default                                  : No
Forced                                   : No

Audio #4
ID                                       : 5
Format                                   : AC-3
Format/Info                              : Audio Coding 3
Commercial name                          : Dolby Digital
Codec ID                                 : A_AC3
Duration                                 : 1 h 29 min
Bit rate mode                            : Constant
Bit rate                                 : 192 kb/s
Channel(s)                               : 2 channels
Channel layout                           : L R
Sampling rate                            : 48.0 kHz
Frame rate                               : 31.250 FPS (1536 SPF)
Compression mode                         : Lossy
Stream size                              : 123 MiB (2%)
Title                                    : AC-3 / 2.0 Ch / 192 kbps / Original / Commentary track with Actor Bill Hader and Writers/Directors Christopher Miller and Phil Lord
Language                                 : English
Service kind                             : Complete Main
Default                                  : No
Forced                                   : No

Text #1
ID                                       : 6
Format                                   : UTF-8
Codec ID                                 : S_TEXT/UTF8
Codec ID/Info                            : UTF-8 Plain Text
Duration                                 : 1 h 19 min
Bit rate                                 : 2 b/s
Count of elements                        : 44
Stream size                              : 1.67 KiB (0%)
Title                                    : Forced
Language                                 : Ukrainian
Default                                  : Yes
Forced                                   : Yes

Text #2
ID                                       : 7
Format                                   : UTF-8
Codec ID                                 : S_TEXT/UTF8
Codec ID/Info                            : UTF-8 Plain Text
Duration                                 : 1 h 29 min
Bit rate                                 : 88 b/s
Count of elements                        : 1158
Stream size                              : 57.8 KiB (0%)
Title                                    : Full from Netflix
Language                                 : Ukrainian
Default                                  : No
Forced                                   : No

Text #3
ID                                       : 8
Format                                   : UTF-8
Codec ID                                 : S_TEXT/UTF8
Codec ID/Info                            : UTF-8 Plain Text
Duration                                 : 1 h 20 min
Bit rate                                 : 59 b/s
Count of elements                        : 1110
Stream size                              : 35.3 KiB (0%)
Title                                    : Full
Language                                 : English
Default                                  : No
Forced                                   : No

Text #4
ID                                       : 9
Format                                   : UTF-8
Codec ID                                 : S_TEXT/UTF8
Codec ID/Info                            : UTF-8 Plain Text
Duration                                 : 1 h 28 min
Bit rate                                 : 117 b/s
Count of elements                        : 1840
Stream size                              : 76.4 KiB (0%)
Title                                    : Commentary
Language                                 : English
Default                                  : No
Forced                                   : No

Menu
00:00:00.000                             : en:Chapter 1
00:04:47.621                             : en:Chapter 2
00:08:56.578                             : en:Chapter 3
00:14:33.164                             : en:Chapter 4
00:20:30.229                             : en:Chapter 5
00:24:25.589                             : en:Chapter 6
00:30:43.175                             : en:Chapter 7
00:36:29.604                             : en:Chapter 8
00:42:50.109                             : en:Chapter 9
00:46:36.794                             : en:Chapter 10
00:52:43.827                             : en:Chapter 11
00:55:07.429                             : en:Chapter 12
01:00:42.764                             : en:Chapter 13
01:05:43.398                             : en:Chapter 14
01:13:03.754                             : en:Chapter 15
01:17:45.369                             : en:Chapter 16
Лог кодування
Код:
x265 [info]: frame I: Avg QP:15.44 kb/s
x265 [info]: frame P: Avg QP:17.09 kb/s
x265 [info]: frame B: Avg QP:19.42 kb/s
Світлини



2. Мінлива хмарність, часом фрикадельки 2 / Cloudy with a Chance of Meatballs 2 (2013) 1080p H.265 Ukr/Eng | Sub Ukr/Eng
Мінлива хмарність, часом фрикадельки 2 / Cloudy with a Chance of Meatballs 2 (2013) 1080p H.265 Ukr/Eng | Sub Ukr/Eng

Мінлива хмарність, часом фрикадельки. Дилогія / Cloudy with a Chance of Meatballs. Dilogy (2009/2013) 1080p H.265 Ukr/Eng | Sub Ukr/Eng


Жанр: анімація, комедія, сімейний
Країна: США
Кінокомпанія: Columbia Pictures, Sony Pictures Animation, Sony Pictures Imageworks (SPI)
Режисер: Коді Камерон, Кріс Пірн
Актори: Білл Гейдер, Анна Феріс, Джеймс Каан, Енді Семберґ, Вілл Форте, Бенджамін Братт, Нейл Патрік Гарріс, Террі Крюс, Бріджет Гоффмен

Сюжет:
Всі жителі острова Своллоу-Фоллз покинули рідний дім після подій із попереднього мультфільму. Головний герой Флінт Локвуд тепер працює в компанії The Live Corp на свого кумира Честера. Але йому доведеться залишити свою посаду коли він дізнається, що його машина все ще працює і проводить на світ небезпечних гібридів. Флінту знову належить врятувати світ і не дати підступній машині поширити величезну їжу по всьому світу.

Тривалість: 01:34:49
Якість:

Відео:
кодек: H.265 (HEVC)
розмір кадру: 1920 x 800
бітрейт: 6 185 кб/с
бітова глибина: 10 біт

Увага! Перед завантаженням переконайтесь, що ваш пристрій відтворення (та/або ПЗ) підтримує H.265 (HEVC)

Аудіо # 1:
мова: українська
озвучення: професійне дубльоване
кодек: AC-3 5.1
бітрейт: 640 кб/с

Аудіо # 2:
мова: англійська
озвучення: оригінал
кодек: 5.1
бітрейт: 1510 кб/с

Аудіо # 3:
мова: англійська
озвучення: оригінал | Filmmaker Commentary with Cody Cameron and Kris Pearn
кодек: AC-3 2.0
бітрейт: 192 кб/с

Субтитри # 1-2: (Forced, Full from Netflix)
мова: українська
тип: програмні (м'які)
формат: *.srt

Субтитри # 3-5: (Full, SDH, SDH-Colored)
мова: англійська
тип: програмні (м'які)
формат: *.srt


Інформація про файл
Код:
General
Unique ID                                : 52249826457785204587106149602088176698 (0x274EF3565AA42861357F594FC04FCC3A)
Complete name                            : 2. Cloudy with a Chance of Meatballs 2 (2013) 1080p H.265 [UKR_ENG] [Hurtom].
Format                                   :
Format version                           : Version 4
File size                                : 5.65 GiB
Duration                                 : 1 h 34 min
Overall bit rate                         : 8 530 kb/s
Movie name                               : Мінлива хмарність, часом фрикадельки 2 / Cloudy with a Chance of Meatballs 2 (2013)
Encoded date                             : UTC 2020-12-06 17:23:37
Writing application                      : v20.0.0 ('I Am The Sun') 64-bit
Writing library                          : libebml v1.3.5 + v1.4.8
Cover                                    : Yes
Attachments                              : Cover.jpg

Video
ID                                       : 1
Format                                   : HEVC
Format/Info                              : High Efficiency Video Coding
Format profile                           : Main [email protected]@High
Codec ID                                 : V_MPEGH/ISO/HEVC
Duration                                 : 1 h 34 min
Bit rate                                 : 6 185 kb/s
Width                                    : 1 920 pixels
Height                                   : 800 pixels
Display aspect ratio                     : 2.40:1
Frame rate mode                          : Constant
Frame rate                               : 23.976 (23976/1000) FPS
Original frame rate                      : 23.976 (24000/1001) FPS
Color space                              : YUV
Chroma subsampling                       : 4:2:0
Bit depth                                : 10 bits
Bits/(Pixel*Frame)                       : 0.168
Stream size                              : 4.10 GiB (72%)
Title                                    : Мінлива хмарність, часом фрикадельки 2 / Cloudy with a Chance of Meatballs 2 (2013)
Writing library                          : x265 3.3+1-g554c887ac:[Windows][MSVC 1924][64 bit] 10bit
Encoding settings                        : cpuid=1111039 / frame-threads=3 / numa-pools=12 / wpp / no-pmode / no-pme / no-psnr / no-ssim / log-level=2 / input-csp=1 / input-res=1920x800 / interlace=0 / total-frames=128220 / level-idc=41 / high-tier=1 / uhd-bd=0 / ref=5 / no-allow-non-conformance / no-repeat-headers / annexb / no-aud / no-hrd / info / hash=0 / no-temporal-layers / open-gop / min-keyint=23 / keyint=240 / gop-lookahead=0 / bframes=12 / b-adapt=2 / b-pyramid / bframe-bias=0 / rc-lookahead=60 / lookahead-slices=4 / scenecut=40 / hist-scenecut=0 / radl=0 / no-splice / no-intra-refresh / ctu=32 / min-cu-size=8 / rect / amp / max-tu-size=32 / tu-inter-depth=4 / tu-intra-depth=4 / limit-tu=1 / rdoq-level=2 / dynamic-rd=0.00 / no-ssim-rd / signhide / no-tskip / nr-intra=0 / nr-inter=0 / no-constrained-intra / no-strong-intra-smoothing / max-merge=4 / limit-refs=2 / limit-modes / me=3 / subme=7 / merange=57 / temporal-mvp / no-frame-dup / no-hme / weightp / weightb / no-analyze-src-pics / deblock=-3:-3 / no-sao / no-sao-non-deblock / rd=6 / selective-sao=0 / no-early-skip / no-rskip / no-fast-intra / no-tskip-fast / no-cu-lossless / no-b-intra / no-splitrd-skip / rdpenalty=0 / psy-rd=2.00 / psy-rdoq=1.00 / no-rd-refine / no-lossless / cbqpoffs=0 / crqpoffs=0 / rc=crf / crf=19.0 / qcomp=0.60 / qpstep=4 / stats-write=0 / stats-read=0 / vbv-maxrate=50000 / vbv-bufsize=50000 / vbv-init=0.9 / crf-max=0.0 / crf-min=0.0 / ipratio=1.40 / pbratio=1.30 / aq-mode=1 / aq-strength=1.00 / no-cutree / zone-count=0 / no-strict-cbr / qg-size=32 / no-rc-grain / qpmax=69 / qpmin=0 / no-const-vbv / sar=1 / overscan=0 / videoformat=5 / range=0 / colorprim=1 / transfer=1 / colormatrix=1 / chromaloc=0 / display-window=0 / cll=0,0 / min-luma=0 / max-luma=1023 / log2-max-poc-lsb=8 / vui-timing-info / vui-hrd-info / slices=1 / no-opt-qp-pps / no-opt-ref-list-length-pps / no-multi-pass-opt-rps / scenecut-bias=0.05 / hist-threshold=0.01 / no-opt-cu-delta-qp / no-aq-motion / no-hdr10 / no-hdr10-opt / no-dhdr10-opt / no-idr-recovery-sei / analysis-reuse-level=0 / analysis-save-reuse-level=0 / analysis-load-reuse-level=0 / scale-factor=0 / refine-intra=0 / refine-inter=0 / refine-mv=1 / refine-ctu-distortion=0 / no-limit-sao / ctu-info=0 / no-lowpass-dct / refine-analysis-type=0 / copy-pic=1 / max-ausize-factor=1.0 / no-dynamic-refine / no-single-sei / no-hevc-aq / no-svt / no-field / qp-adaptation-range=1.00 / no-scenecut-aware-qpconformance-window-offsets / right=0 / bottom=0
Default                                  : Yes
Forced                                   : No
Color range                              : Limited
Color primaries                          : BT.709
Transfer characteristics                 : BT.709
Matrix coefficients                      : BT.709

Audio #1
ID                                       : 2
Format                                   : AC-3
Format/Info                              : Audio Coding 3
Commercial name                          : Dolby Digital
Codec ID                                 : A_AC3
Duration                                 : 1 h 34 min
Bit rate mode                            : Constant
Bit rate                                 : 640 kb/s
Channel(s)                               : 6 channels
Channel layout                           : L R C LFE Ls Rs
Sampling rate                            : 48.0 kHz
Frame rate                               : 31.250 FPS (1536 SPF)
Compression mode                         : Lossy
Stream size                              : 434 MiB (8%)
Title                                    : AC-3 / 5.1 Ch / 640 kbps / DUB / Blu-Ray
Language                                 : Ukrainian
Service kind                             : Complete Main
Default                                  : Yes
Forced                                   : Yes

Audio #2
ID                                       : 3
Format                                   :
Format/Info                              : Digital Theater Systems
Codec ID                                 : A_DTS
Duration                                 : 1 h 34 min
Bit rate mode                            : Constant
Bit rate                                 : 1 509 kb/s
Channel(s)                               : 6 channels
Channel layout                           : C L R Ls Rs LFE
Sampling rate                            : 48.0 kHz
Frame rate                               : 93.750 FPS (512 SPF)
Bit depth                                : 24 bits
Compression mode                         : Lossy
Delay relative to video                  : 11 ms
Stream size                              : 1 024 MiB (18%)
Title                                    : / 5.1 Ch / 1509 kbps / Original
Language                                 : English
Default                                  : No
Forced                                   : No

Audio #3
ID                                       : 4
Format                                   : AC-3
Format/Info                              : Audio Coding 3
Commercial name                          : Dolby Digital
Codec ID                                 : A_AC3
Duration                                 : 1 h 34 min
Bit rate mode                            : Constant
Bit rate                                 : 192 kb/s
Channel(s)                               : 2 channels
Channel layout                           : L R
Sampling rate                            : 48.0 kHz
Frame rate                               : 31.250 FPS (1536 SPF)
Compression mode                         : Lossy
Stream size                              : 130 MiB (2%)
Title                                    : AC-3 / 2.0 Ch / 192 kbps / Original / Filmmaker Commentary with Cody Cameron and Kris Pearn
Language                                 : English
Service kind                             : Complete Main
Default                                  : No
Forced                                   : No

Text #1
ID                                       : 5
Format                                   : UTF-8
Codec ID                                 : S_TEXT/UTF8
Codec ID/Info                            : UTF-8 Plain Text
Duration                                 : 1 h 27 min
Bit rate                                 : 2 b/s
Count of elements                        : 43
Stream size                              : 1.43 KiB (0%)
Title                                    : Forced
Language                                 : Ukrainian
Default                                  : Yes
Forced                                   : Yes

Text #2
ID                                       : 6
Format                                   : UTF-8
Codec ID                                 : S_TEXT/UTF8
Codec ID/Info                            : UTF-8 Plain Text
Duration                                 : 1 h 34 min
Bit rate                                 : 99 b/s
Count of elements                        : 1347
Stream size                              : 68.6 KiB (0%)
Title                                    : Full from Netflix
Language                                 : Ukrainian
Default                                  : No
Forced                                   : No

Text #3
ID                                       : 7
Format                                   : UTF-8
Codec ID                                 : S_TEXT/UTF8
Codec ID/Info                            : UTF-8 Plain Text
Duration                                 : 1 h 30 min
Bit rate                                 : 69 b/s
Count of elements                        : 1649
Stream size                              : 46.1 KiB (0%)
Title                                    : Full
Language                                 : English
Default                                  : No
Forced                                   : No

Text #4
ID                                       : 8
Format                                   : UTF-8
Codec ID                                 : S_TEXT/UTF8
Codec ID/Info                            : UTF-8 Plain Text
Duration                                 : 1 h 32 min
Bit rate                                 : 74 b/s
Count of elements                        : 1874
Stream size                              : 50.2 KiB (0%)
Title                                    : SDH
Language                                 : English
Default                                  : No
Forced                                   : No

Text #5
ID                                       : 9
Format                                   : UTF-8
Codec ID                                 : S_TEXT/UTF8
Codec ID/Info                            : UTF-8 Plain Text
Duration                                 : 1 h 32 min
Bit rate                                 : 89 b/s
Count of elements                        : 1874
Stream size                              : 60.4 KiB (0%)
Title                                    : SDH-Colored
Language                                 : English
Default                                  : No
Forced                                   : No

Menu
00:00:00.000                             : en:Chapter 1
00:07:12.014                             : en:Chapter 2
00:12:51.520                             : en:Chapter 3
00:18:50.420                             : en:Chapter 4
00:25:58.390                             : en:Chapter 5
00:31:57.081                             : en:Chapter 6
00:36:53.252                             : en:Chapter 7
00:39:28.908                             : en:Chapter 8
00:41:07.840                             : en:Chapter 9
00:45:28.016                             : en:Chapter 10
00:49:48.694                             : en:Chapter 11
00:54:41.403                             : en:Chapter 12
01:00:39.886                             : en:Chapter 13
01:06:47.920                             : en:Chapter 14
01:12:54.953                             : en:Chapter 15
01:21:25.589                             : en:Chapter 16
Лог кодування
Код:
x265 [info]: frame I: Avg QP:17.06 kb/s
x265 [info]: frame P: Avg QP:18.73 kb/s
x265 [info]: frame B: Avg QP:20.61 kb/s
Світлини




Бонус

Мінлива хмарність, часом фрикадельки 2: Міні-фільми / Cloudy with a Chance of Meatballs 2: Mini-Movies (2013) 1080p H.265 Ukr/Eng
Мінлива хмарність, часом фрикадельки 2: Міні-фільми / Cloudy with a Chance of Meatballs 2: Mini-Movies (2013) 1080p H.265 Ukr/Eng

Мінлива хмарність, часом фрикадельки. Дилогія / Cloudy with a Chance of Meatballs. Dilogy (2009/2013) 1080p H.265 Ukr/Eng | Sub Ukr/Eng

1. 2. 3. 4.

Жанр: анімація, дитячий, сімейний
Країна: США
Кінокомпанія: анімація, дитячий, сімейний
Режисер: Девід Фейс
Актори: Бенджамін Бретт, Білл Хейдер, Ніл Патрік Гарріс,Енн Феріс, Крейг Келлман, Террі Крес, Коді Кемерон

Сюжет:
Короткометражні мультфільми "Напад 50-ти футувого ведмедика Гаммі", "Скаути Ерла", "Перше купання Стіва", "Супер Менні"- додаткові матеріали до мультфільму "Мінлива хмарність, часом фрикадельки 2"

Тривалість: 00:05:58
Якість:

Відео:
кодек: H.265 (HEVC)
розмір кадру: 1920 x 1080
бітрейт: 9 700 кб/с
бітова глибина: 10 біт

Увага! Перед завантаженням переконайтесь, що ваш пристрій відтворення (та/або ПЗ) підтримує H.265 (HEVC)

Аудіо # 1:
мова: українська
переклад: професійний дубльований
кодек: AC-3 2.0
бітрейт: 192 кб/с

Аудіо # 2:
мова: англійська
переклад: оригінал
кодек: AC-3 2.0
бітрейт: 192 кб/с


Інформація про файл
Код:
General
Unique ID                                : 28386420310149719726784645983562069024 (0x155B06938CB159DAF5185ECB029F7420)
Complete name                            : Attack of the 50 Foot Gummi Bear (2013) 1080p H.265 [UKR_ENG] [Hurtom].
Format                                   :
Format version                           : Version 4
File size                                : 432 MiB
Duration                                 : 5 min 59 s
Overall bit rate                         : 10.1 Mb/s
Movie name                               : Напад 50-ти футувого ведмедика Гаммі / Attack of the 50 Foot Gummi Bear (2013)
Encoded date                             : UTC 2020-05-20 20:50:09
Writing application                      : v20.0.0 ('I Am The Sun') 64-bit
Writing library                          : libebml v1.3.5 + v1.4.8
Cover                                    : Yes
Attachments                              : Cover.jpg

Video
ID                                       : 1
Format                                   : HEVC
Format/Info                              : High Efficiency Video Coding
Format profile                           : Main [email protected]@High
Codec ID                                 : V_MPEGH/ISO/HEVC
Duration                                 : 5 min 58 s
Bit rate                                 : 9 700 kb/s
Width                                    : 1 920 pixels
Height                                   : 1 080 pixels
Display aspect ratio                     : 16:9
Frame rate mode                          : Constant
Frame rate                               : 23.976 (24000/1001) FPS
Color space                              : YUV
Chroma subsampling                       : 4:2:0
Bit depth                                : 10 bits
Bits/(Pixel*Frame)                       : 0.195
Stream size                              : 415 MiB (96%)
Title                                    : Напад 50-ти футувого ведмедика Гаммі / Attack of the 50 Foot Gummi Bear (2013)
Writing library                          : x265 3.2+5-354901970679:[Windows][clang 8.0.1][64 bit] 10bit
Encoding settings                        : cpuid=1111039 / frame-threads=13 / numa-pools=12 / wpp / no-pmode / no-pme / no-psnr / no-ssim / log-level=3 / input-csp=1 / input-res=1920x1080 / interlace=0 / total-frames=0 / level-idc=51 / high-tier=1 / uhd-bd=0 / ref=5 / allow-non-conformance / no-repeat-headers / annexb / no-aud / no-hrd / info / hash=0 / no-temporal-layers / open-gop / min-keyint=24 / keyint=240 / gop-lookahead=0 / bframes=11 / b-adapt=2 / b-pyramid / bframe-bias=0 / rc-lookahead=40 / lookahead-slices=6 / scenecut=40 / radl=0 / no-splice / no-intra-refresh / ctu=64 / min-cu-size=8 / rect / amp / max-tu-size=32 / tu-inter-depth=4 / tu-intra-depth=4 / limit-tu=0 / rdoq-level=2 / dynamic-rd=0.00 / no-ssim-rd / signhide / no-tskip / nr-intra=0 / nr-inter=0 / no-constrained-intra / no-strong-intra-smoothing / max-merge=3 / limit-refs=1 / no-limit-modes / me=3 / subme=7 / merange=57 / temporal-mvp / no-frame-dup / no-hme / weightp / weightb / no-analyze-src-pics / deblock=-3:-3 / no-sao / no-sao-non-deblock / rd=6 / selective-sao=0 / early-skip / rskip / no-fast-intra / no-tskip-fast / no-cu-lossless / b-intra / no-splitrd-skip / rdpenalty=0 / psy-rd=2.00 / psy-rdoq=1.00 / no-rd-refine / no-lossless / cbqpoffs=0 / crqpoffs=0 / rc=crf / crf=20.0 / qcomp=0.65 / qpstep=4 / stats-write=0 / stats-read=0 / vbv-maxrate=50000 / vbv-bufsize=50000 / vbv-init=0.9 / crf-max=30.0 / crf-min=0.0 / ipratio=1.40 / pbratio=1.30 / aq-mode=1 / aq-strength=1.00 / no-cutree / zone-count=0 / no-strict-cbr / qg-size=32 / no-rc-grain / qpmax=69 / qpmin=0 / no-const-vbv / sar=1 / overscan=0 / videoformat=5 / range=0 / colorprim=2 / transfer=2 / colormatrix=2 / chromaloc=0 / display-window=0 / cll=0,0 / min-luma=0 / max-luma=1023 / log2-max-poc-lsb=8 / vui-timing-info / vui-hrd-info / slices=1 / no-opt-qp-pps / no-opt-ref-list-length-pps / no-multi-pass-opt-rps / scenecut-bias=0.05 / no-opt-cu-delta-qp / no-aq-motion / no-hdr / no-hdr-opt / no-dhdr10-opt / no-idr-recovery-sei / analysis-reuse-level=5 / scale-factor=0 / refine-intra=0 / refine-inter=0 / refine-mv=1 / refine-ctu-distortion=0 / no-limit-sao / ctu-info=0 / no-lowpass-dct / refine-analysis-type=0 / copy-pic=1 / max-ausize-factor=1.0 / no-dynamic-refine / no-single-sei / no-hevc-aq / no-svt / no-field / qp-adaptation-range=1.00
Default                                  : Yes
Forced                                   : No
Color range                              : Limited

Audio #1
ID                                       : 2
Format                                   : AC-3
Format/Info                              : Audio Coding 3
Commercial name                          : Dolby Digital
Codec ID                                 : A_AC3
Duration                                 : 5 min 59 s
Bit rate mode                            : Constant
Bit rate                                 : 192 kb/s
Channel(s)                               : 2 channels
Channel layout                           : L R
Sampling rate                            : 48.0 kHz
Frame rate                               : 31.250 FPS (1536 SPF)
Compression mode                         : Lossy
Stream size                              : 8.22 MiB (2%)
Title                                    : / 2.0 Ch / 192 kbps / ПД / Blu-Ray
Language                                 : Ukrainian
Service kind                             : Complete Main
Default                                  : Yes
Forced                                   : Yes

Audio #2
ID                                       : 3
Format                                   : AC-3
Format/Info                              : Audio Coding 3
Commercial name                          : Dolby Digital
Codec ID                                 : A_AC3
Duration                                 : 5 min 59 s
Bit rate mode                            : Constant
Bit rate                                 : 192 kb/s
Channel(s)                               : 2 channels
Channel layout                           : L R
Sampling rate                            : 48.0 kHz
Frame rate                               : 31.250 FPS (1536 SPF)
Compression mode                         : Lossy
Stream size                              : 8.22 MiB (2%)
Title                                    : / 2.0 Ch / 192 kbps / Original
Language                                 : English
Service kind                             : Complete Main
Default                                  : No
Forced                                   : No
Світлини












Джерело: &
Особиста оцінка: 10 - без зайвих вагань рекомендую всім!


Бронзовий реліз (на рейтинг впливає 75% завантаженого)
 Трекер:    Зареєстрований   

Завантажити / скачати мультфільм українською



відео для новачків



 Зареєстрований:   2020-12-06 19:32
 Розмір:   12.45 GB 
 Оцінка мультфільму:   8.7/10 (Голосів: 11)
   
IRONHIDE 
VIP


З нами з: 06.08.10
Востаннє: 03.03.21
Повідомлень: 279

2020-05-04 09:32  
Хороший мульт. 8/10
Anonymous 







2020-05-21 20:46  
Додано 4 короткометражки
11FrYkT 
Модератор відео


З нами з: 20.02.11
Востаннє: 02.03.21
Повідомлень: 7152

2020-05-22 08:40  
Anonymous написано:

Аудіо # 1:
мова: українська
переклад: професійний дубльований
кодек: AC-3 2.0
бітрейт: 192 кб/с

Блурей?

Anonymous 







2020-05-22 09:22  
11FrYkT написано:
Блурей?

+

Anonymous 







2020-12-06 19:32  
Додано укр. саби.
Ваш часовий пояс: GMT + 2 Години

Нова тема   Відповісти