Убий їх усіх / Kill'em All (2017) AVC Ukr/Eng | sub Ukr/Eng

Нові коментарі

Нова тема   Відповісти
Автор Повідомлення
Arsenfpu 
Відео Гуртом - фільмокрай
Відео Гуртом - фільмокрай


З нами з: 30.04.09
Востаннє: 05.08.20
Повідомлень: 7115

2020-05-03 22:22  
Убий їх усіх / Kill'em All (2017) AVC Ukr/Eng | sub Ukr/Eng

Убий їх усіх / Kill'em All (2017) AVC Ukr/Eng | sub Ukr/Eng


Жанр: екшн, кримінальний
Країна: США



Кінокомпанія: Arramis Films, Destination Films, ITN Films
Режисер: Пітер малот
Актори: Жан-Клод Ван Дамм, Петер Стормаре, Отем Різер, Марія Кончіта Алонсо, Деніел Бернхард, Крістофер Ван Варенберг, Джеймс П. Беннетт, Ганс Марреро, Пол Семпсон

Сюжет:
У звичайну американську лікарню надходить незвичайний пацієнт, який перебуває при смерті після масової перестрілки. Бійня поновлюється, коли по його сліду приходить група озброєних грабіжників. Свідку, якій вдалось вижити - молодій медсестрі Сюзанні - доведеться мати справу з агентами ФБР і учасниками міжнародної змови.


Тривалість: 01:35:50
Якість:
Відео:
кодек:
розмір кадру: 1 152 х 480
бітрейт: 2 606 кб/с

Аудіо # 1:
мова: українська
переклад: багатоголосий закадровий
кодек: 2.0
бітрейт: 192 кб/с

Аудіо # 2:
мова: англійська
переклад: оригінал
кодек: 2.0
бітрейт: 192 кб/с

Субтитри:
мова: українська
тип: програмні (м'які)
формат: *.srt

Субтитри:
мова: англійська
тип: програмні (м'які)
формат: *.srt
Скріншоти














Про файл
General
Unique ID : 280996675000659284740646757122860962320 (0xD365FDB67B5962A818EBA9C43DA4D210)
Complete name : C:\Kill'em All (2017) [Ukr,Eng] AVC [Hurtom].
Format :
Format version : Version 4 / Version 2
File size : 2.00 GiB
Duration : 1 h 35 min
Overall bit rate : 2 992 kb/s
Movie name : Убий їх усіх / Kill'em All (2017)
Encoded date : UTC 2020-05-08 16:06:20
Writing application : v21.0.0 ('Tardigrades Will Inherit The Earth') 32-bit
Writing library : libebml v1.3.5 + v1.4.8
Cover : Yes
Attachments : cover.jpg

Video
ID : 1
Format : AVC
Format/Info : Advanced Video Codec
Format profile : [email protected]
Format settings, CABAC : Yes
Format settings, ReFrames : 11 frames
Codec ID : V_MPEG4/ISO/AVC
Duration : 1 h 35 min
Bit rate : 2 606 kb/s
Width : 1 152 pixels
Height : 480 pixels
Display aspect ratio : 2.40:1
Frame rate mode : Constant
Frame rate : 23.976 (24000/1001) FPS
Color space : YUV
Chroma subsampling : 4:2:0
Bit depth : 8 bits
Scan type : Progressive
Bits/(Pixel*Frame) : 0.197
Stream size : 1.74 GiB (87%)
Writing library : core 152 r2851kMod ba24899
Encoding settings : cabac=1 / ref=11 / deblock=1:-3:-3 / analyse=0x3:0x113 / me=umh / subme=11 / psy=1 / fade_compensate=0.00 / psy_rd=1.00:0.05 / mixed_ref=1 / me_range=48 / chroma_me=1 / trellis=2 / 8x8dct=1 / cqm=0 / deadzone=21,11 / fast_pskip=0 / chroma_qp_offset=-3 / threads=6 / lookahead_threads=6 / sliced_threads=0 / nr=0 / decimate=1 / interlaced=0 / bluray_compat=0 / constrained_intra=0 / bframes=16 / b_pyramid=2 / b_adapt=2 / b_bias=0 / direct=3 / weightb=1 / open_gop=0 / weightp=2 / keyint=240 / keyint_min=23 / scenecut=40 / intra_refresh=0 / rc_lookahead=60 / rc=crf / mbtree=1 / crf=16.6000 / qcomp=0.60 / qpmin=0 / qpmax=69 / qpstep=4 / vbv_maxrate=50000 / vbv_bufsize=62500 / crf_max=0.0 / nal_hrd=none / filler=0 / ip_ratio=1.40 / aq=3:0.70
Language : English
Default : Yes
Forced : No
Color range : Limited
Color primaries : BT.709
Transfer characteristics : BT.709
Matrix coefficients : BT.709

Audio #1
ID : 2
Format : AC-3
Format/Info : Audio Coding 3
Mode extension : CM (complete main)
Format settings, Endianness : Big
Codec ID : A_AC3
Duration : 1 h 35 min
Bit rate mode : Constant
Bit rate : 192 kb/s
Channel(s) : 2 channels
Channel positions : Front: L R
Sampling rate : 48.0 kHz
Frame rate : 31.250 FPS (1536 spf)
Compression mode : Lossy
Stream size : 132 MiB (6%)
Title : ICTV
Language : Ukrainian
Default : Yes
Forced : Yes

Audio #2
ID : 3
Format : AC-3
Format/Info : Audio Coding 3
Mode extension : CM (complete main)
Format settings, Endianness : Big
Codec ID : A_AC3
Duration : 1 h 35 min
Bit rate mode : Constant
Bit rate : 192 kb/s
Channel(s) : 2 channels
Channel positions : Front: L R
Sampling rate : 48.0 kHz
Frame rate : 31.250 FPS (1536 spf)
Compression mode : Lossy
Stream size : 132 MiB (6%)
Language : English
Default : No
Forced : No

Text
ID : 4
Format : UTF-8
Codec ID : S_TEXT/UTF8
Codec ID/Info : UTF-8 Plain Text
Duration : 1 h 33 min
Bit rate : 39 b/s
Count of elements : 845
Stream size : 27.3 KiB (0%)
Title : Eng
Language : English
Default : No
Forced : No

Menu
00:00:00.000 : en:00:00:00.000
00:10:02.602 : en:00:10:02.602
00:15:03.653 : en:00:15:03.653
00:20:25.599 : en:00:20:25.599
00:23:32.661 : en:00:23:32.661
00:30:05.679 : en:00:30:05.679
00:38:21.716 : en:00:38:21.716
00:43:43.454 : en:00:43:43.454
00:48:37.873 : en:00:48:37.873
00:53:32.000 : en:00:53:32.000
00:58:52.279 : en:00:58:52.279
01:03:58.334 : en:01:03:58.334
01:08:31.065 : en:01:08:31.065
01:12:44.068 : en:01:12:44.068
01:21:30.177 : en:01:21:30.177
01:28:14.122 : en:01:28:14.122
Джерело:
Особиста оцінка: не дивився


 Трекер:    Зареєстрований   

Завантажити / скачати фільм українською



відео для новачків



 Зареєстрований:   2020-05-08 19:52
 Розмір:   2 GB 
 Оцінка фільму:   5.2/10 (Голосів: 6)
   
Інші релізи
bot 
робот


З нами з: 30.09.07
Востаннє: 26.05.05
Повідомлень: 25167

2020-05-08 19:38  
Тему перенесено з Анонси релізів до форуму Фільми


Arsenfpu

staf777 
Відео Гуртом - підтримка та поширення
Відео Гуртом - підтримка та поширення


З нами з: 16.11.16
Востаннє: 05.08.20
Повідомлень: 3928

2020-05-08 19:56  
+720+1080
Blbchn 
Новенький


З нами з: 12.05.20
Востаннє: 05.08.20
Повідомлень: 2

2020-05-12 22:55  
Не може не радувати те , що студія ictv витрачає свій час і ресурси на озвучування таких фільмів ........
( ніт )

Ваш часовий пояс: GMT + 2 Години

Нова тема   Відповісти