Творець ігор / The Games Maker (2014) AVC Ukr/Eng | sub Eng

Нові коментарі

Нова тема   Відповісти
Автор Повідомлення
Arsenfpu 
Відео Гуртом - фільмокрай
Відео Гуртом - фільмокрай


З нами з: 30.04.09
Востаннє: 11.07.20
Повідомлень: 7051

2020-05-03 22:08  
Творець ігор / The Games Maker (2014) AVC Ukr/Eng | sub Eng

Творець ігор / The Games Maker (2014) AVC Ukr/Eng | sub Eng


Жанр: пригодницький, сімейний
Країна: Аргентина, Канада, Італія



Кінокомпанія: Pampa Films, Sepia Films, 7Glab Entertainment
Режисер: Хуан Пабло Бускаріні
Актори: Джозеф Файнс, Томас Кевена, Меган Чарпентьє, Валентина Лодовіні, Роберт Верлак, Алехандро Авада, Едвард Еснер, Девід Мазоуз, Алан Ферраро, Реймонд Едвард Лі

Сюжет:
Нове захоплення юного Айвена Драго, настільні ігри, переносить його в фантастичний паралельний світ, де він стикається з генієм створення ігор на ім'я Мородіан, який давно бажає знищити місто Зіл, заснований дідом Айвана. Щоб врятувати сім'ю і перемогти Мородіана, Айвен повинен дізнатися, що значить бути справжнім творцем ігор.


Тривалість: 01:52:06
Якість:
Відео:
кодек:
розмір кадру: 1 024 х 432
бітрейт: 1 999 кб/с

Аудіо # 1:
мова: українська
переклад: багатоголосий закадровий
кодек: 2.0
бітрейт: 192 кб/с

Аудіо # 2:
мова: англійська
переклад: оригінал
кодек: 2.0
бітрейт: 192 кб/с

Субтитри:
мова: англійська
тип: програмні (м'які)
формат: *.srt
Скріншоти














Про файл
General
Unique ID : 320052694835205342910818947821922248672 (0xF0C7E8290ED864716C0BC1AD137967E0)
Complete name : C:\The Games Maker (2014) [Ukr,Eng] AVC [Hurtom].
Format :
Format version : Version 4 / Version 2
File size : 1.87 GiB
Duration : 1 h 52 min
Overall bit rate : 2 386 kb/s
Movie name : Творець ігор / The Games Maker (2014)
Encoded date : UTC 2020-05-05 21:14:05
Writing application : v21.0.0 ('Tardigrades Will Inherit The Earth') 32-bit
Writing library : libebml v1.3.5 + v1.4.8
Cover : Yes
Attachments : cover.jpg

Video
ID : 1
Format : AVC
Format/Info : Advanced Video Codec
Format profile : [email protected]
Format settings, CABAC : Yes
Format settings, ReFrames : 4 frames
Codec ID : V_MPEG4/ISO/AVC
Duration : 1 h 52 min
Bit rate : 1 999 kb/s
Width : 1 024 pixels
Height : 432 pixels
Display aspect ratio : 2.40:1
Frame rate mode : Constant
Frame rate : 23.976 (24000/1001) FPS
Color space : YUV
Chroma subsampling : 4:2:0
Bit depth : 8 bits
Scan type : Progressive
Bits/(Pixel*Frame) : 0.188
Stream size : 1.57 GiB (84%)
Writing library : core 157 r2935 545de2f
Encoding settings : cabac=1 / ref=3 / deblock=1:-1:-1 / analyse=0x3:0x113 / me=hex / subme=7 / psy=1 / psy_rd=1.00:0.15 / mixed_ref=1 / me_range=16 / chroma_me=1 / trellis=1 / 8x8dct=1 / cqm=0 / deadzone=21,11 / fast_pskip=1 / chroma_qp_offset=-3 / threads=12 / lookahead_threads=2 / sliced_threads=0 / nr=0 / decimate=1 / interlaced=0 / bluray_compat=0 / constrained_intra=0 / bframes=3 / b_pyramid=2 / b_adapt=1 / b_bias=0 / direct=1 / weightb=1 / open_gop=0 / weightp=2 / keyint=240 / keyint_min=23 / scenecut=40 / intra_refresh=0 / rc_lookahead=40 / rc=2pass / mbtree=1 / bitrate=1999 / ratetol=1.0 / qcomp=0.60 / qpmin=0 / qpmax=69 / qpstep=4 / cplxblur=20.0 / qblur=0.5 / ip_ratio=1.40 / aq=1:1.00
Default : Yes
Forced : No

Audio #1
ID : 2
Format : AC-3
Format/Info : Audio Coding 3
Mode extension : CM (complete main)
Format settings, Endianness : Big
Codec ID : A_AC3
Duration : 1 h 52 min
Bit rate mode : Constant
Bit rate : 192 kb/s
Channel(s) : 2 channels
Channel positions : Front: L R
Sampling rate : 48.0 kHz
Frame rate : 31.250 FPS (1536 spf)
Compression mode : Lossy
Stream size : 154 MiB (8%)
Title : ТЕТ
Language : Ukrainian
Default : Yes
Forced : Yes

Audio #2
ID : 3
Format : AC-3
Format/Info : Audio Coding 3
Mode extension : CM (complete main)
Format settings, Endianness : Big
Codec ID : A_AC3
Duration : 1 h 52 min
Bit rate mode : Constant
Bit rate : 192 kb/s
Channel(s) : 2 channels
Channel positions : Front: L R
Sampling rate : 48.0 kHz
Frame rate : 31.250 FPS (1536 spf)
Compression mode : Lossy
Stream size : 154 MiB (8%)
Language : English
Default : No
Forced : No

Text #1
ID : 4
Format : UTF-8
Codec ID : S_TEXT/UTF8
Codec ID/Info : UTF-8 Plain Text
Duration : 1 h 46 min
Bit rate : 58 b/s
Count of elements : 1570
Stream size : 46.1 KiB (0%)
Language : English
Default : Yes
Forced : No

Text #2
ID : 5
Format : UTF-8
Codec ID : S_TEXT/UTF8
Codec ID/Info : UTF-8 Plain Text
Duration : 1 h 46 min
Bit rate : 59 b/s
Count of elements : 1624
Stream size : 47.0 KiB (0%)
Language : English
Default : No
Forced : No
Джерело:
Особиста оцінка: не дивився


 Трекер:    Зареєстрований   

Завантажити / скачати фільм українською



відео для новачків



 Зареєстрований:   2020-05-06 00:34
 Розмір:   1.87 GB 
 Оцінка фільму:   9.6/10 (Голосів: 11)
   
bot 
робот


З нами з: 30.09.07
Востаннє: 26.05.05
Повідомлень: 25037

2020-05-06 00:34  
Тему перенесено з Анонси релізів до форуму Фільми


Arsenfpu

atyapkin 
Новенький


З нами з: 02.07.15
Востаннє: 05.07.20
Повідомлень: 2

2020-05-07 14:02  
Хто вже дивився? Бо бачу ім'я Іван Драго, очікую побачити Роккі Баольбоа.
Djohnnikey 
VIP


З нами з: 01.10.15
Востаннє: 10.07.20
Повідомлень: 389

2020-06-03 19:06  
Доволі цільне та цікаве кіно. Так, часами виникають питання до логіки: наприклад Всебачачі - то люді та розумні істоти, яких поєднали на кшталт людської багатоніжки чи ні? Але це правила цього всесвіту - й з цими правилами він цілком гармонійний. Схоже на те, що знято за книгою. Й книгу я б прочитав.
Але те, що головного героя звати Іван Драго, й він - не Дольф Лундґрен та взагалі не любить бійок - збиває з пантелику. Цікаво, чому так назвали персонажа?..
8 з 10.

oleksii.halytskyi 
Новенький


З нами з: 29.12.18
Востаннє: 10.07.20
Повідомлень: 6

2020-06-04 00:07  
На карантині можна подивитися.
Ваш часовий пояс: GMT + 2 Години

Нова тема   Відповісти