Керувати цим містом / Run This Town (2019) 1080p Eng | sub Ukr/Eng

Нові коментарі

Нова тема   Відповісти
Автор Повідомлення
Anonymous 







2020-05-03 20:35  
Керувати цим містом / Run This Town (2019) 1080p Eng | sub Ukr/Eng

Керувати цим містом / Run This Town (2019) 1080p Eng | sub Ukr/Eng


Жанр: драма
Країна: Канада



Кінокомпанія: CounterNarrative Films, JoBro Productions & Film Finance, Manis Film, Raised by Wolves
Режисер: Рікі Толлман / Ricky Tollman
Актори: Бен Платт / Ben Platt, Мена Массуд / Mena Massoud, Деміен Льюїс / Damian Lewis, Ніна Добрев / Nina Dobrev, Скотт Спідман / Scott Speedman, Дженніфер Елі / Jennifer Ehle, Джил Белловс / Gil Bellows, Лорен Коллінз / Lauren Collins, Девід Ейснер / David Eisner, Хамза Хак / Hamza Haq, Кетрін Грінвуд / Kathryn Greenwood, Еммануель Кабонго / Emmanuel Kabongo, Ребекка Лідд'ярд / Rebecca Liddiard та інші.

Сюжет:
Після закінчення навчання Брем отримує роботу своєї мрії в міській газеті. Він вважає себе великим журналістом, хоча в реальності замість журналістських розслідувань складає рейтинги типу "топ-10 кращих хот-догів". Втомившись від рутини і безперспективності, молодий журналіст натикається на потенційно хайпову історію, пов'язану зі скандальним мером міста. Він починає власне розслідування і намагається втертися в довіру до помічниці мера Камали, щоб з'ясувати факти.
Офіційний трейлер:

Рейтинг MPAA: R - особам до 17 років обов'язкова присутність батьків або дорослого опікуна
Вікова категорія: 16+

Тривалість: 01:38:29
Якість: 1080p
Відео:
кодек:
розмір кадру: 1920 х 804
бітрейт: 4529 кб/с

Аудіо:
мова: англійська
переклад: оригінал
кодек: 5.1
бітрейт: 384 кб/с

Субтитри # 1:
мова: українська
тип: програмні (м'які)
формат: *.srt

Субтитри # 2:
мова: англійська (повні)
тип: програмні (м'які)
формат: *.srt

Збережено оригінальні розділи
Info
Код:

Complete name               : Run This Town (2019) [Eng sub.Ukr,Eng] 1080p [Hurtom].
Format                      :
Format version              : Version 4
File size                   : 3.38 GiB
Duration                    : 1 h 38 min
Overall bit rate            : 4 916 kb/s
Movie name                  : Керувати цим містом / Run This Town (2019) [Eng sub.Ukr,Eng] 1080p [Hurtom]
Encoded date                : UTC 2020-05-03 22:23:41
Writing application         : v46.0.0 ('No Deeper Escape') 64-bit
Writing library             : libebml v1.3.10 + v1.5.2
Cover                       : Yes
Attachments                 : cover.jpg

Video
ID                          : 1
Format                      : AVC
Format/Info                 : Advanced Video Codec
Format profile              : [email protected]
Format settings             : CABAC / 5 Ref Frames
Format settings, CABAC      : Yes
Format settings, Reference  : 5 frames
Codec ID                    : V_MPEG4/ISO/AVC
Duration                    : 1 h 38 min
Bit rate                    : 4 529 kb/s
Width                       : 1 920 pixels
Height                      : 804 pixels
Display aspect ratio        : 2.40:1
Frame rate mode             : Constant
Frame rate                  : 23.976 (23976/1000) FPS
Color space                 : YUV
Chroma subsampling          : 4:2:0
Bit depth                   : 8 bits
Scan type                   : Progressive
Bits/(Pixel*Frame)          : 0.122
Stream size                 : 3.12 GiB (92%)
Title                       : Керувати цим містом / Run This Town (2019) 1080p [EVO]
Language                    : English
Default                     : Yes
Forced                      : No
Color range                 : Limited
Color primaries             : BT.709
Transfer characteristics    : BT.709
Matrix coefficients         : BT.709

Audio
ID                          : 2
Format                      : AC-3
Format/Info                 : Audio Coding 3
Commercial name             : Dolby Digital
Codec ID                    : A_AC3
Duration                    : 1 h 38 min
Bit rate mode               : Constant
Bit rate                    : 384 kb/s
Channel(s)                  : 6 channels
Channel layout              : L R C LFE Ls Rs
Sampling rate               : 48.0 kHz
Frame rate                  : 31.250 FPS (1536 SPF)
Compression mode            : Lossy
Delay relative to video     : -42 ms
Stream size                 : 270 MiB (8%)
Language                    : English
Service kind                : Complete Main
Default                     : Yes
Forced                      : No

Text #1
ID                          : 3
Format                      : UTF-8
Codec ID                    : S_TEXT/UTF8
Codec ID/Info               : UTF-8 Plain Text
Duration                    : 1 h 37 min
Bit rate                    : 113 b/s
Count of elements           : 1409
Stream size                 : 81.5 KiB (0%)
Title                       : Ukr Full [iTunes]
Language                    : Ukrainian
Default                     : Yes
Forced                      : Yes

Text #2
ID                          : 4
Format                      : UTF-8
Codec ID                    : S_TEXT/UTF8
Codec ID/Info               : UTF-8 Plain Text
Duration                    : 1 h 38 min
Bit rate                    : 108 b/s
Count of elements           : 1977
Stream size                 : 77.8 KiB (0%)
Language                    : English
Default                     : No
Forced                      : No

Menu
00:00:00.000                : en:Chapter 01
00:11:33.000                : en:Chapter 02
00:23:28.000                : en:Chapter 03
00:34:23.000                : en:Chapter 04
00:46:24.000                : en:Chapter 05
00:58:27.000                : en:Chapter 06
01:10:00.000                : en:Chapter 07
01:20:16.000                : en:Chapter 08
01:31:06.000                : en:Chapter 09
01:35:06.000                : en:Chapter 10



Джерело: &


 Трекер:    Зареєстрований   

Завантажити / скачати фільм українською



відео для новачків



 Зареєстрований:   2020-05-04 00:33
 Розмір:   3.38 GB 
 Оцінка фільму:   1/10 (Голосів: 1)
 ЗАЛИШАЙТЕСЬ ЯКОМОГА ДОВШЕ НА РОЗДАЧІ! ЗАВАНТАЖИВ САМ - ДАЙ ЗАВАНТАЖИТИ ІНШИМ!
   
21jumpstreet 
VIP


З нами з: 03.07.12
Востаннє: 30.11.20
Повідомлень: 1461

2020-05-03 20:38  
Алладін
bot 
робот


З нами з: 30.09.07
Востаннє: 26.05.05
Повідомлень: 26411

2020-05-04 00:33  
Тему перенесено з Анонси релізів до форуму Фільми


igor911

Ваш часовий пояс: GMT + 2 Години

Нова тема   Відповісти