Паперовий будинок (Сезон 1) / La Casa de Papel / Money Heist (Season 1) (2017) Ukr/Spa

Нові коментарі

Нова тема   Відповісти
Автор Повідомлення
Цікава ідея 
VIP


З нами з: 26.12.11
Востаннє: 29.09.20
Повідомлень: 668

2020-05-03 21:20  
1 сезон: | AVC | 1080p
2 сезон: | AVC | 1080p
3 сезон: | AVC | 1080p
4 сезон: | AVC | 1080p

Паперовий будинок (Сезон 1) / La Casa de Papel / Money Heist (Season 1) (2017) Ukr/Spa


Паперовий будинок (Сезон 1) / La Casa de Papel / Money Heist (Season 1) (2017) Ukr/Spa


Жанр: бойовик, детектив, кримінальний, трилер
Країна: Іспанія



Кінокомпанія / телеканал: Vancouver Media, Netflix
Режисери: Хесус Кольменар, Алекс Родріго, Алехандро Бассоно
Актори: Едан Мосес, Урсула Корберо, Іціар Ітуньйо, Альваро Морте, Педро Алонсо, Альба Флоренс, Мігель Ерран

Сюжет:
Щоб здійснити найбільше пограбування в історії таємничий «Професор» знаходить вісім грабіжників, яким нічого втрачати. П'ять місяців підготовки й тренувань, щоб пограбувати одне з найбільш захищених місць Іспанії - Національний монетний двір.


Перекладено та озвучено ТО "Цікава Ідея" за підтримки fishMD


Український трейлер в нашому озвученні.


ЯКЩО НЕ ПРАЦЮЄ ТИЦЬ СЮДИ


Тривалість: 1 серія: ~ 40 хв. (цілком серій: 13)
Перелік серій:

01. Efectuar lo acordado
02. Imprudencias letales
03. Errar al disparar
04. Caballo de Troya
05. El día de la marmota
06. La cálida Guerra Fría
07. Refrigerada inestabilidad
08. Tú lo has buscado
09. El que la sigue la consigue
10. Se acabaron las máscaras
11. La cabeza del plan
12. Cuestión de eficacia
13. ¿Qué hemos hecho?
Якість:
Відео:
кодек:
розмір кадру: 720 x 400
бітрейт: ~ 1800 кб/с

Аудіо # 1:
мова: українська | "Цікава Ідея"
переклад: професійний багатоголосий закадровий
кодек: 2.0
бітрейт: 192 кб/с

Аудіо # 2:
мова: іспанська
переклад: оригінал
кодек: 2.0
бітрейт: 192 кб/с
Info
Код:
Format                      : AVI
Format/Info                 : Audio Video Interleave
File size                   : 785 MiB
Duration                    : 47 min 28 s
Overall bit rate            : 2 313 kb/s
Movie name                  : Паперовий Р±СѓРґРёРЅРѕРє / Money Heist - S01E01 (2017) 1080p [Ukr.Eng] [Цікава Ідея]
Writing application         : Lavf58.20.100

Video
ID                          : 0
Format                      : MPEG-4 Visual
Format profile              : Advanced [email protected]
Format settings             : BVOP1
Format settings, BVOP       : 1
Format settings, QPel       : No
Format settings, GMC        : No warppoints
Format settings, Matrix     : Default (H.263)
Codec ID                    :
Codec ID/Hint               :
Duration                    : 47 min 28 s
Bit rate                    : 1 912 kb/s
Width                       : 720 pixels
Height                      : 400 pixels
Display aspect ratio        : 16:9
Frame rate                  : 25.000 FPS
Color space                 : YUV
Chroma subsampling          : 4:2:0
Bit depth                   : 8 bits
Scan type                   : Progressive
Compression mode            : Lossy
Bits/(Pixel*Frame)          : 0.266
Stream size                 : 649 MiB (83%)
Writing library             : 67

Audio #1
ID                          : 1
Format                      : AC-3
Format/Info                 : Audio Coding 3
Commercial name             : Dolby Digital
Codec ID                    : 2000
Duration                    : 47 min 28 s
Bit rate mode               : Constant
Bit rate                    : 192 kb/s
Channel(s)                  : 2 channels
Channel layout              : L R
Sampling rate               : 48.0 kHz
Frame rate                  : 31.250 FPS (1536 SPF)
Bit depth                   : 16 bits
Compression mode            : Lossy
Stream size                 : 65.2 MiB (8%)
Alignment                   : Aligned on interleaves
Interleave, duration        : 32  ms (0.80 video frame)
Title                       : Українська
Service kind                : Complete Main

Audio #2
ID                          : 2
Format                      : AC-3
Format/Info                 : Audio Coding 3
Commercial name             : Dolby Digital
Codec ID                    : 2000
Duration                    : 47 min 28 s
Bit rate mode               : Constant
Bit rate                    : 192 kb/s
Channel(s)                  : 2 channels
Channel layout              : L R
Sampling rate               : 48.0 kHz
Frame rate                  : 31.250 FPS (1536 SPF)
Bit depth                   : 16 bits
Compression mode            : Lossy
Stream size                 : 65.2 MiB (8%)
Alignment                   : Aligned on interleaves
Interleave, duration        : 32  ms (0.80 video frame)
Service kind                : Complete Main
Скріншоти



Озвучено творчим об'єднанням:
Переклад: Федір Сидорук.
Ролі озвучили: Семен Птаха, Олексій Сафін, Юлія Малахова, Андрій Корзаченко та Олександр Чернов.
Подяка за ріпи в avi: antik_2008


Авторський реліз (завантажувати можна без реєстрації)
 Трекер:    Зареєстрований   

Завантажити / скачати серіал українською



відео для новачків



 Зареєстрований:   2020-05-08 00:02
 Розмір:   9.94 GB 
 Оцінка серіалу:   9.6/10 (Голосів: 30)
 Перекладено та озвучено 10-13 серії.
   
Цікава ідея 
VIP


З нами з: 26.12.11
Востаннє: 29.09.20
Повідомлень: 668

2020-05-03 21:22  
Переклали та озвучили 1-9 серії!
Бажаємо приємного перегляду!


Подяка за ріпи в avi: antik_2008

Tantea 
Новенький


З нами з: 23.06.18
Востаннє: 28.09.20
Повідомлень: 5

2020-05-05 11:53  
10/10
Неперевершена озвучка, дуже гарний серіал. Дякую.

Цікава ідея 
VIP


З нами з: 26.12.11
Востаннє: 29.09.20
Повідомлень: 668

2020-05-08 00:02  
Переклали та озвучили 10-13 серії. Фінал сезону!
Вже працюємо над наступними серіями!

Бажаємо приємного перегляду!

olla12121 
Новенький


З нами з: 14.11.14
Востаннє: 26.09.20
Повідомлень: 4

2020-07-05 11:16  
Для тих хто чув хороші відгуки про цей серіал і вирішив почати його дивитися, наголошую! 80% що, перша серія вам не сподобається (кажу з особистого досвіду та досвіду своїх знайомих), буде здаватися що це якась нецікава дурня, АЛЕ дуже рекомендую все ж переглянути 2 та 3 серії, саме ВОНИ вас "затягнуть".
Серіал неперевершений, дуже рекомендую подивитися, сюжет дуже цікавий та закручений. Кожна серія доволі непередбачувана, що лишає захопливе відчуття очікування, та бажання дізнатись, що буде далі.

Ваш часовий пояс: GMT + 2 Години

Нова тема   Відповісти