Падіння ордену (Сезон 2) / Knightfall (Season 2) (2019) 720p Ukr/Eng | sub Eng

Нові коментарі

Нова тема   Відповісти
Автор Повідомлення
Anonymous 







2020-05-03 15:37  
Падіння ордену (Сезон 2) / Knightfall (Season 2) (2019) 720p Ukr/Eng | sub Eng

Падіння ордену (Сезон 2) / Knightfall (Season 2) (2019) 720p Ukr/Eng | sub Eng


Жанр: екшн, пригодницький, драма
Країна: США



Кінокомпанія: A+E Studios, Midnight Radio, Stillking Films
Режисер: Дуглас Маккіннон, Девід Петрарка, Метін Гусейїн
Актори: Том Каллен, Падрейк Делані, Саймон Мерреллс, Олівія Росс, Джуліан Овенден, Ед Стоппард, Сабріна Бартлет, Боббі Шофілд, Марк Гемілл

Сюжет:
"Knightfall" - драматичний багатосерійний телесеріал про лицарів-тамплієрів, в основі якого лежать реальні історичні події, що відбулися в XIII столітті.

Середньовіччя, Європа. Між впливовим і могутнім Папою Римським Климентом V і французьким королем йде війна за владу і панування. У конфлікт втягнуті лицарі-тамплієри, які після участі в хрестових походах починають розуміти, наскільки дурні і безглузді ці дебати. Один з лицарів, сер Лендрі, мріє відшукати Святий Грааль, і раптово дізнається про людей, які його бачили. Він збирається кинути всі свої зусилля на те, щоб дістатися до заповітного скарбу.

Крім того, серіал фокусується на історіях різних людей, які перебувають в ордені тамплієрів, або хоча б якимось боком стикаються з ним: бездомною простолюдинкою Аделіною, яку лицарі рятують від неминучої смерті, колишнього блискучого фехтувальника Гавейна, вимушеного залишити мрії про світле майбутнє через отриману рану, загадкового Персифаля, який входить до лав ордена для того, щоб здійснити свою мрію про помсту, а також багатьох інших.


Тривалість: 1 серія: ~ 45 хв. (цілком серій: 8)
Перелік серій
01. God's Executioners
02. The Devil Inside
03. Faith
04. Equal Before God
05. Road to Chartres
06. Blood Drenched Stone
07. Death Awaits
08. While I Breathe, I Trust the Cross
Якість:
Відео:
кодек:
розмір кадру: 1280 х 720
бітрейт: 3543 кб/с

Аудіо # 1:
мова: українська
переклад: двоголосий закадровий
кодек: 2.0
бітрейт: 192 кб/с

Аудіо # 2:
мова: англійська
переклад: оригінал
кодек: 2.0
бітрейт: 224 кб/с

Джерело озвучення:
DniproFilm

Субтитри:
мова: англійська
тип: програмні (м'які)
формат: *.srt
Info
Код:
General
Unique ID                                : 174351905920617296216054367822347492490 (0x832AF4A54E0411510423FFEAC09BDC8A)
Complete name                            : Knightfall S02E01 (2019) 720p [Ukr_Eng] [Hurtom].
Format                                   :
Format version                           : Version 4
File size                                : 1.25 GiB
Duration                                 : 45 min 20 s
Overall bit rate                         : 3 961 kb/s
Movie name                               : Падіння ордену (Сезон2, серія 1) (2019)
Encoded date                             : UTC 2020-04-19 17:25:26
Writing application                      : v30.1.0 ('Forever And More') 64-bit
Writing library                          : libebml v1.3.6 + v1.4.9
Cover                                    : Yes
Attachments                              : cover.jpg

Video
ID                                       : 1
Format                                   : AVC
Format/Info                              : Advanced Video Codec
Format profile                           : [email protected]
Format settings                          : CABAC / 4 Ref Frames
Format settings, CABAC                   : Yes
Format settings, ReFrames                : 4 frames
Codec ID                                 : V_MPEG4/ISO/AVC
Duration                                 : 45 min 20 s
Bit rate mode                            : Constant
Bit rate                                 : 3 543 kb/s
Nominal bit rate                         : 6 000 kb/s
Width                                    : 1 280 pixels
Height                                   : 720 pixels
Display aspect ratio                     : 16:9
Frame rate mode                          : Constant
Frame rate                               : 23.976 (24000/1001) FPS
Color space                              : YUV
Chroma subsampling                       : 4:2:0
Bit depth                                : 8 bits
Scan type                                : Progressive
Bits/(Pixel*Frame)                       : 0.160
Stream size                              : 1.12 GiB (89%)
Language                                 : English
Default                                  : Yes
Forced                                   : No
Color range                              : Limited
Color primaries                          : BT.709
Transfer characteristics                 : BT.709
Matrix coefficients                      : BT.709

Audio #1
ID                                       : 2
Format                                   : AC-3
Format/Info                              : Audio Coding 3
Commercial name                          : Dolby Digital
Codec ID                                 : A_AC3
Duration                                 : 45 min 20 s
Bit rate mode                            : Constant
Bit rate                                 : 192 kb/s
Channel(s)                               : 2 channels
Channel layout                           : L R
Sampling rate                            : 48.0 kHz
Frame rate                               : 31.250 FPS (1536 SPF)
Bit depth                                : 16 bits
Compression mode                         : Lossy
Stream size                              : 62.3 MiB (5%)
Language                                 : Ukrainian
Service kind                             : Complete Main
Default                                  : Yes
Forced                                   : Yes

Audio #2
ID                                       : 3
Format                                   : E-AC-3
Format/Info                              : Enhanced AC-3
Commercial name                          : Dolby Digital Plus
Codec ID                                 : A_EAC3
Duration                                 : 45 min 20 s
Bit rate mode                            : Constant
Bit rate                                 : 224 kb/s
Channel(s)                               : 2 channels
Channel layout                           : L R
Sampling rate                            : 48.0 kHz
Frame rate                               : 31.250 FPS (1536 SPF)
Compression mode                         : Lossy
Stream size                              : 72.6 MiB (6%)
Language                                 : English
Service kind                             : Complete Main
Default                                  : No
Forced                                   : No

Text
ID                                       : 4
Format                                   : UTF-8
Codec ID                                 : S_TEXT/UTF8
Codec ID/Info                            : UTF-8 Plain Text
Duration                                 : 45 min 7 s
Bit rate                                 : 65 b/s
Count of elements                        : 823
Stream size                              : 21.5 KiB (0%)
Title                                    : SDH
Language                                 : English
Default                                  : No
Forced                                   : No

Скріншоти







Джерело:


Авторський реліз (завантажувати можна без реєстрації)
 Трекер:    Зареєстрований   

Завантажити / скачати серіал українською



відео для новачків



 Зареєстрований:   2020-05-03 15:37
 Розмір:   8.25 GB 
 Оцінка серіалу:   9.8/10 (Голосів: 9)
   
clint 
Поважний учасник


З нами з: 30.03.09
Востаннє: 27.11.20
Повідомлень: 201

2020-05-18 11:01  
А перший сезон буде?
Ваш часовий пояс: GMT + 2 Години

Нова тема   Відповісти