Обличчя (Mug) / Twarz (2018) 1080p Pol | sub Ukr/Eng

Нові коментарі

Нова тема   Відповісти
Автор Повідомлення
ivan vyrvyvuho 
VIP


З нами з: 19.08.12
Востаннє: 24.11.20
Повідомлень: 1176

2020-05-03 14:54  
Обличчя (Mug) / Twarz (2018) 1080p Pol | sub Ukr/Eng

Обличчя (Mug) / Twarz (2018) 1080p Pol | sub Ukr/Eng


Жанр: трагікомедія, драма
Країна: Польща



Кінокомпанія: Nowhere, DI Factory, Dreamsound Studio
Режисер: Малґожата Шумовська / Małgorzata Szumowska
Актори: Матеуш Костюкевич / Mateusz Kościukiewicz, Аґнєшка Подсядлік / Agnieszka Podsiadlik, Малґожата Ґороль / Małgorzata Gorol, Анна Томашевська / Anna Tomaszewska, Даріуш Хойнацький / Dariusz Chojnacki, Роберт Таларчик / Robert Talarczyk, Роман Ґанцарчик / Roman Gancarczyk, Кшиштоф Чечот / Krzysztof Czeczot та інші.

Сюжет:
Історія звичайного хлопця Яцека, який живе простим життям десь на західній Польщі, але все змінюється, коли в результаті нещасного випадку на будівництві, він отримує важкі травми. Йому роблять операцію з пересадки обличчя, спотворений він повертається додому й пробує знайти себе в новому житті. Але не все так просто, бо люди починають сахатися від нього, як від прокаженого.


Тривалість: 01:31:28
Якість:
Відео:
кодек:
розмір кадру: 1920 х 804
бітрейт: 4644 кб/с

Аудіо:
мова: польська
переклад: оригінал
кодек: 5.1
бітрейт: 448 кб/с

Субтитри:
мова: українська
тип: програмні (м'які)
формат: *.srt
переклад: любительський з польської ivan vyrvyvuho

Субтитри:
мова: англійська
тип: програмні (м'які)
формат: *.srt
Скріншоти





Медіаінфо
General
Unique ID : 244711475358964984141460029845729637371 (0xB819B73F83A7CB22DEB6D5E171DEF3FB)
Complete name : D:\торент\Twarz (2018) 1080p [Pol,SubUkr,Eng].
Format :
Format version : Version 4
File size : 3.25 GiB
Duration : 1 h 31 min
Overall bit rate : 5 093 kb/s
Movie name : Twarz.2018..1080p.iTunes.RUS-ylnian
Encoded date : UTC 2020-05-03 09:32:18
Writing application : v43.0.0 ('The Quartermaster') 64-bit
Writing library : libebml v1.3.10 + v1.5.2

Video
ID : 1
Format : AVC
Format/Info : Advanced Video Codec
Format profile : [email protected]
Format settings : CABAC / 5 Ref Frames
Format settings, CABAC : Yes
Format settings, Reference : 5 frames
Codec ID : V_MPEG4/ISO/AVC
Duration : 1 h 31 min
Bit rate : 4 644 kb/s
Width : 1 920 pixels
Height : 804 pixels
Display aspect ratio : 2.40:1
Frame rate mode : Constant
Frame rate : 24.000 FPS
Color space : YUV
Chroma subsampling : 4:2:0
Bit depth : 8 bits
Scan type : Progressive
Bits/(Pixel*Frame) : 0.125
Stream size : 2.97 GiB (91%)
Title : Twarz.2018..1080p.iTunes.RUS-ylnian
Language : Polish
Default : Yes
Forced : Yes
Color range : Limited
Color primaries : BT.709
Transfer characteristics : BT.709
Matrix coefficients : BT.709

Audio
ID : 2
Format : AC-3
Format/Info : Audio Coding 3
Commercial name : Dolby Digital
Codec ID : A_AC3
Duration : 1 h 31 min
Bit rate mode : Constant
Bit rate : 448 kb/s
Channel(s) : 6 channels
Channel layout : L R C LFE Ls Rs
Sampling rate : 48.0 kHz
Frame rate : 31.250 FPS (1536 SPF)
Bit depth : 16 bits
Compression mode : Lossy
Stream size : 293 MiB (9%)
Language : Polish
Service kind : Complete Main
Default : No
Forced : No

Text #1
ID : 3
Format : UTF-8
Codec ID : S_TEXT/UTF8
Codec ID/Info : UTF-8 Plain Text
Duration : 1 h 25 min
Bit rate : 43 b/s
Count of elements : 521
Stream size : 27.0 KiB (0%)
Title : Ukr
Language : Ukrainian
Default : Yes
Forced : Yes

Text #2
ID : 4
Format : UTF-8
Codec ID : S_TEXT/UTF8
Codec ID/Info : UTF-8 Plain Text
Duration : 1 h 29 min
Bit rate : 27 b/s
Count of elements : 545
Stream size : 18.0 KiB (0%)
Title : Eng
Language : English
Default : No
Forced : No

Джерело: Рутрекер &
Особиста оцінка: 7 - добрий фільм. Стрічка висміює стереотипи в польському суспільстві.


Золотий реліз (завантажене не впливає на рейтинг)
 Трекер:    Зареєстрований   

Завантажити / скачати фільм українською



відео для новачків



 Зареєстрований:   2020-05-03 14:54
 Розмір:   3.25 GB 
 Оцінка фільму:   5.7/10 (Голосів: 6)
   
Ostap_Hnat 
Новенький


З нами з: 23.06.20
Востаннє: 24.11.20
Повідомлень: 13

2020-11-21 06:34  
Будь ласка, станьте на роздачу.
Ваш часовий пояс: GMT + 2 Години

Нова тема   Відповісти