Поклик пращурів / The Call of the Wild (2020) Remux 1080p Ukr/Eng | Sub Ukr/Eng

Нові коментарі

Нова тема   Відповісти
Автор Повідомлення
Anonymous 







2020-05-03 13:55  
Поклик пращурів / The Call of the Wild (2020) Remux 1080p Ukr/Eng | Sub Ukr/Eng


Жанр: драма, пригоди, сімейний
Країна: США



Кінокомпанія: 20th Century Fox, 3 Arts Entertainment, TSG Entertainment
Режисер: Кріс Сандерс
Актори: Гаррісон Форд, Террі Нотарі, Карен Гіллан, Ден Стівенс, Бредлі Вітфорд, Джин Луіза Келлі, Омар Сі, Уес Браун, Престон Бейлі

Сюжет:
Історія справжньої дружби золотошукача Джона Торнтона і пса Бака, який потрапляє зі свого затишного будинку в Каліфорнії в суворі холоди канадського Юкону у часи золотої лихоманки.


Тривалість: 01:39:42
Якість: Remux 1080p

Відео:
кодек:
розмір кадру: 1920 х 1080
бітрейт: 29.4 мб/с

Аудіо # 1:
мова: українська
переклад: професійний дубльований
кодек: 5.1
бітрейт: 384 кб/с

Аудіо # 2:
мова: українська
переклад: професійний дубльований
кодек: 2.0
бітрейт: 192 кб/с

Аудіо # 3:
мова: англійська
переклад: оригінал
кодек: 5.1
бітрейт: 640 кб/с

Аудіо # 4:
мова: англійська
переклад: оригінал
кодек: -HD MA 7.1
бітрейт: 4974 кб/с

Субтитри: (Forced, Full)
мова: українська
тип: програмні (м'які)
формат: *.srt

Субтитри: (Full, SDH)
мова: англійська
тип: програмні (м'які)
формат: *.srt

Збережено оригінальні розділи, як на Blu-ray
Info
Код:
General
Complete name                            : The Call of the Wild (2020) Blu-Ray Remux 1080p [Ukr_Eng] [ViDeO_Hurtom].
Format                                   :
Format version                           : Version 4
File size                                : 24.8 GiB
Duration                                 : 1 h 39 min
Overall bit rate mode                    : Variable
Overall bit rate                         : 35.6 Mb/s
Movie name                               : Поклик пращурів / The Call of the Wild (2020)
Encoded date                             : UTC 2020-05-23 16:48:00
Writing application                      : v30.1.0 ('Forever And More') 64-bit
Writing library                          : libebml v1.3.6 + v1.4.9
Cover                                    : Yes
Attachments                              : cover.jpg

Video
ID                                       : 1
Format                                   : AVC
Format/Info                              : Advanced Video Codec
Format profile                           : [email protected]
Format settings                          : CABAC / 4 Ref Frames
Format settings, CABAC                   : Yes
Format settings, RefFrames               : 4 frames
Codec ID                                 : V_MPEG4/ISO/AVC
Duration                                 : 1 h 39 min
Bit rate mode                            : Variable
Bit rate                                 : 29.4 Mb/s
Maximum bit rate                         : 31.5 Mb/s
Width                                    : 1 920 pixels
Height                                   : 1 080 pixels
Display aspect ratio                     : 16:9
Frame rate mode                          : Constant
Frame rate                               : 23.976 (24000/1001) FPS
Color space                              : YUV
Chroma subsampling                       : 4:2:0
Bit depth                                : 8 bits
Scan type                                : Progressive
Bits/(Pixel*Frame)                       : 0.591
Stream size                              : 20.5 GiB (83%)
Language                                 : English
Default                                  : Yes
Forced                                   : No

Audio #1
ID                                       : 2
Format                                   : AC-3
Format/Info                              : Audio Coding 3
Commercial name                          : Dolby Digital
Codec ID                                 : A_AC3
Duration                                 : 1 h 39 min
Bit rate mode                            : Constant
Bit rate                                 : 384 kb/s
Channel(s)                               : 6 channels
Channel layout                           : L R C LFE Ls Rs
Sampling rate                            : 48.0 kHz
Frame rate                               : 31.250 FPS (1536 SPF)
Bit depth                                : 16 bits
Compression mode                         : Lossy
Stream size                              : 274 MiB (1%)
Title                                    : 5.1, 384 Kbps
Language                                 : Ukrainian
Service kind                             : Complete Main
Default                                  : Yes
Forced                                   : No

Audio #2
ID                                       : 3
Format                                   : AC-3
Format/Info                              : Audio Coding 3
Commercial name                          : Dolby Digital
Codec ID                                 : A_AC3
Duration                                 : 1 h 39 min
Bit rate mode                            : Constant
Bit rate                                 : 192 kb/s
Channel(s)                               : 2 channels
Channel layout                           : L R
Sampling rate                            : 48.0 kHz
Frame rate                               : 31.250 FPS (1536 SPF)
Bit depth                                : 16 bits
Compression mode                         : Lossy
Stream size                              : 137 MiB (1%)
Title                                    : , 2.0, 192 Kbps
Language                                 : Ukrainian
Service kind                             : Complete Main
Default                                  : No
Forced                                   : No

Audio #3
ID                                       : 4
Format                                   : AC-3
Format/Info                              : Audio Coding 3
Commercial name                          : Dolby Digital
Codec ID                                 : A_AC3
Duration                                 : 1 h 39 min
Bit rate mode                            : Constant
Bit rate                                 : 640 kb/s
Channel(s)                               : 6 channels
Channel layout                           : L R C LFE Ls Rs
Sampling rate                            : 48.0 kHz
Frame rate                               : 31.250 FPS (1536 SPF)
Bit depth                                : 16 bits
Compression mode                         : Lossy
Stream size                              : 456 MiB (2%)
Title                                    : , 5.1, 640 Kbps
Language                                 : English
Service kind                             : Complete Main
Default                                  : No
Forced                                   : No

Audio #4
ID                                       : 5
Format                                   : ES XLL
Format/Info                              : Digital Theater Systems
Commercial name                          : -HD Master Audio
Codec ID                                 : A_DTS
Duration                                 : 1 h 39 min
Bit rate mode                            : Variable
Bit rate                                 : 4 974 kb/s
Channel(s)                               : 8 channels
Channel layout                           : C L R Ls Rs LFE Lb Rb
Sampling rate                            : 48.0 kHz
Frame rate                               : 93.750 FPS (512 SPF)
Bit depth                                : 24 bits
Compression mode                         : Lossless
Stream size                              : 3.46 GiB (14%)
Title                                    : -HD MA, 7.1, 4974 Kbps
Language                                 : English
Default                                  : No
Forced                                   : No

Text #1
ID                                       : 6
Format                                   : UTF-8
Codec ID                                 : S_TEXT/UTF8
Codec ID/Info                            : UTF-8 Plain Text
Duration                                 : 54 min 30 s
Bit rate                                 : 0 b/s
Count of elements                        : 2
Stream size                              : 39.0 Bytes (0%)
Title                                    : Forced
Language                                 : Ukrainian
Default                                  : Yes
Forced                                   : No

Text #2
ID                                       : 7
Format                                   : UTF-8
Codec ID                                 : S_TEXT/UTF8
Codec ID/Info                            : UTF-8 Plain Text
Duration                                 : 1 h 38 min
Bit rate                                 : 34 b/s
Count of elements                        : 764
Stream size                              : 24.7 KiB (0%)
Title                                    : Full
Language                                 : Ukrainian
Default                                  : No
Forced                                   : No

Text #3
ID                                       : 8
Format                                   : UTF-8
Codec ID                                 : S_TEXT/UTF8
Codec ID/Info                            : UTF-8 Plain Text
Duration                                 : 1 h 38 min
Bit rate                                 : 23 b/s
Count of elements                        : 805
Stream size                              : 17.0 KiB (0%)
Title                                    : Full
Language                                 : English
Default                                  : No
Forced                                   : No

Text #4
ID                                       : 9
Format                                   : UTF-8
Codec ID                                 : S_TEXT/UTF8
Codec ID/Info                            : UTF-8 Plain Text
Duration                                 : 1 h 39 min
Bit rate                                 : 32 b/s
Count of elements                        : 1196
Stream size                              : 23.4 KiB (0%)
Title                                    : SDH
Language                                 : English
Default                                  : No
Forced                                   : No

Menu
00:00:00.000                             : en:Chapter 01
00:03:35.882                             : en:Chapter 02
00:05:58.608                             : en:Chapter 03
00:10:31.339                             : en:Chapter 04
00:15:49.699                             : en:Chapter 05
00:19:03.851                             : en:Chapter 06
00:23:29.533                             : en:Chapter 07
00:27:28.355                             : en:Chapter 08
00:32:27.821                             : en:Chapter 09
00:34:32.529                             : en:Chapter 10
00:41:43.793                             : en:Chapter 11
00:46:14.522                             : en:Chapter 12
00:50:07.338                             : en:Chapter 13
00:55:15.562                             : en:Chapter 14
01:00:30.919                             : en:Chapter 15
01:04:04.632                             : en:Chapter 16
01:07:46.980                             : en:Chapter 17
01:12:38.563                             : en:Chapter 18
01:17:02.952                             : en:Chapter 19
01:19:25.219                             : en:Chapter 20
01:23:07.107                             : en:Chapter 21
01:26:21.218                             : en:Chapter 22
01:29:26.194                             : en:Chapter 23
01:32:22.620                             : en:Chapter 24
Скріншоти



Джерело: & &
Особиста оцінка: 9 - давно не бачив настільки якісне кіно


Золотий реліз (завантажене не впливає на рейтинг)
 Трекер:    Зареєстрований   

Завантажити / скачати фільм українською



відео для новачків



 Зареєстрований:   2020-05-23 22:08
 Розмір:   24.77 GB 
 Оцінка фільму:   9.8/10 (Голосів: 9)
   
bot 
робот


З нами з: 30.09.07
Востаннє: 26.05.05
Повідомлень: 24547

2020-05-04 14:57  
Тему перенесено з Анонси релізів до форуму Фільми в HD


antik_2008

valera.povkh 
Новенький


З нами з: 22.03.17
Востаннє: 25.05.20
Повідомлень: 5

2020-05-04 21:25  
Доброго вечора, скажіть будь ласка , коли можна очікувати на реліз в 4K Ultra HD ?
Anonymous 







2020-05-04 21:28  
valera.povkh написано:
Доброго вечора, скажіть будь ласка , коли можна очікувати на реліз в 4K Ultra HD ?

треба очікувати ? Він був у такому форматі ?

valera.povkh 
Новенький


З нами з: 22.03.17
Востаннє: 25.05.20
Повідомлень: 5

2020-05-04 21:32  
Так , на кацапських сайтах вже є в 4K
Anonymous 







2020-05-04 22:02  
valera.povkh написано:
Так , на кацапських сайтах вже є в 4K

якщо треба
викладу завтра

valera.povkh 
Новенький


З нами з: 22.03.17
Востаннє: 25.05.20
Повідомлень: 5

2020-05-05 09:14  
Anonymous
Дякую, чекатиму на ваш реліз в 4K

Anonymous 







2020-05-23 22:09  
Реліз оновлено. Додано 5.1 | 384 kbps
Ваш часовий пояс: GMT + 2 Години

Нова тема   Відповісти