Луїс і прибульці (Luis and His Friends from Outer Space) / Luis & the Aliens (2018) 1080p Ukr/Ger | Sub Eng

Нові коментарі

Нова тема   Відповісти
Автор Повідомлення
taraskill1 
Відео Гуртом - фільмокрай
Відео Гуртом - фільмокрай


З нами з: 21.01.12
Востаннє: 28.02.21
Повідомлень: 1314

2020-05-03 11:45  
Луїс і прибульці / Luis & the Aliens (2018) 1080p Ukr/Ger | Sub Eng

Луїс і прибульці (Luis and His Friends from Outer Space) / Luis & the Aliens (2018) 1080p Ukr/Ger | Sub Eng


Жанр: мультфільм, фантастика, комедія, пригодницький
Країна: Німеччина, Люксембург, Данія



Кінокомпанія: Ulysses Filmproduktion, Fabrique d'Images, A. Film
Режисер: Крістоф Лауенштайн / Christoph Lauenstein, Вольфґанґ Лауенштайн / Wolfgang Lauenstein, Шон МакКормак / Sean McCormack
Ролі озвучують: Каллум Малоні / Callum Maloney, Дермот Магенніс / Dermot Magennis, Йен Коппінгер / Ian Coppinger, Пол Тайлак / Paul Tylak, Люсі Керолан / Lucy Carolan та інші

Сюжет:
Хлопчик Луїс ріс без матері. Та й батько майже ніколи не має часу для сина – він одержимий тим, щоб довести всьому світу, що інопланетяни існують. Загалом, у Луїса не дуже-то легке та нормальне життя. Хлопчик стає свідком неймовірного події – прямо біля їхнього будинку розбилася літаюча тарілка із трьома інопланетянами. Але показати цих прибульців кому-небудь з дорослих – це дуже погана затія, яка ні до чого доброго не приведе. У той же час директор школи, де вчиться Луїс, вирішує, що хлопчика треба відправити до інтернату, бо батько не приділяє йому достатньо уваги. Тільки нові друзі підлітка його розуміють. Ці веселі хлопці можуть перевтілюватися в будь-яку живу істоту, що дуже допомагає їм ховатися. Але для них краще буде, якщо вони полетять додому. Тому Луїс всіляко їм допомагає полагодити тарілку. Можливо, і хлопчик із ними полетить, щоб ніколи не бачити цих проблем на Землі.


Тривалість: 01:25:15
Якість: 1080p
Відео:
кодек:
розмір кадру: 1920x1036
бітрейт: 12,4 Мб/с

Аудіо # 1:
мова: українська
переклад: професійний дубльований
кодек: 2.0
бітрейт: 192 кб/с

Аудіо # 2:
мова: німецька
переклад: оригінал
кодек: 5.1
бітрейт: 1509 кб/с

Субтитри:
мова: англійська
тип: програмні (м'які)
формат: *.srt
Info
Код:
General
Unique ID                   : 142279082777063543133098685605579729472 (0x6B09F460895659FC15BF6B37845A2A40)
Complete name               : D:\Luis & the Aliens (2018) [Ukr,Ger] 1080p [Hurtom].
Format                      :
Format version              : Version 4
File size                   : 8.38 GiB
Duration                    : 1 h 25 min
Overall bit rate            : 14.1 Mb/s
Encoded date                : UTC 2020-05-03 09:20:50
Writing application         : v45.0.0 ('Heaven in Pennies') 64-bit
Writing library             : libebml v1.3.10 + v1.5.2

Video
ID                          : 1
Format                      : AVC
Format/Info                 : Advanced Video Codec
Format profile              : [email protected]
Format settings             : CABAC / 4 Ref Frames
Format settings, CABAC      : Yes
Format settings, Reference  : 4 frames
Codec ID                    : V_MPEG4/ISO/AVC
Duration                    : 1 h 25 min
Bit rate                    : 12.4 Mb/s
Width                       : 1 920 pixels
Height                      : 1 036 pixels
Display aspect ratio        : 1.85:1
Frame rate mode             : Constant
Frame rate                  : 24.000 FPS
Color space                 : YUV
Chroma subsampling          : 4:2:0
Bit depth                   : 8 bits
Scan type                   : Progressive
Bits/(Pixel*Frame)          : 0.259
Stream size                 : 7.36 GiB (88%)
Title                       : Luis and His Friends from Outer Space 1080p (2018)
Writing library             : core 152 r2851kMod ba24899
Encoding settings           : cabac=1 / ref=4 / deblock=1:-3:-3 / analyse=0x3:0x133 / me=umh / subme=11 / psy=1 / fade_compensate=0.00 / psy_rd=1.00:0.05 / mixed_ref=1 / me_range=48 / chroma_me=1 / trellis=2 / 8x8dct=1 / cqm=0 / deadzone=21,11 / fast_pskip=0 / chroma_qp_offset=-3 / threads=12 / lookahead_threads=2 / sliced_threads=0 / nr=0 / decimate=1 / interlaced=0 / bluray_compat=0 / constrained_intra=0 / bframes=9 / b_pyramid=2 / b_adapt=2 / b_bias=0 / direct=3 / weightb=1 / open_gop=0 / weightp=2 / keyint=250 / keyint_min=23 / scenecut=40 / intra_refresh=0 / rc_lookahead=60 / rc=crf / mbtree=0 / crf=16.7000 / qcomp=0.60 / qpmin=0 / qpmax=69 / qpstep=4 / vbv_maxrate=50000 / vbv_bufsize=62500 / crf_max=0.0 / nal_hrd=none / filler=0 / ip_ratio=1.40 / pb_ratio=1.30 / aq=3:0.90
Language                    : German
Default                     : Yes
Forced                      : No

Audio #1
ID                          : 2
Format                      : AC-3
Format/Info                 : Audio Coding 3
Commercial name             : Dolby Digital
Codec ID                    : A_AC3
Duration                    : 1 h 25 min
Bit rate mode               : Constant
Bit rate                    : 192 kb/s
Channel(s)                  : 2 channels
Channel layout              : L R
Sampling rate               : 48.0 kHz
Frame rate                  : 31.250 FPS (1536 SPF)
Bit depth                   : 16 bits
Compression mode            : Lossy
Stream size                 : 117 MiB (1%)
Title                       : Дубльований, "Новий канал"
Language                    : Ukrainian
Service kind                : Complete Main
Default                     : Yes
Forced                      : No

Audio #2
ID                          : 3
Format                      :
Format/Info                 : Digital Theater Systems
Codec ID                    : A_DTS
Duration                    : 1 h 25 min
Bit rate mode               : Constant
Bit rate                    : 1 509 kb/s
Channel(s)                  : 6 channels
Channel layout              : C L R Ls Rs LFE
Sampling rate               : 48.0 kHz
Frame rate                  : 93.750 FPS (512 SPF)
Bit depth                   : 24 bits
Compression mode            : Lossy
Stream size                 : 920 MiB (11%)
Title                       : Оригінал
Language                    : German
Default                     : No
Forced                      : No

Text
ID                          : 4
Format                      : UTF-8
Codec ID                    : S_TEXT/UTF8
Codec ID/Info               : UTF-8 Plain Text
Duration                    : 1 h 23 min
Bit rate                    : 61 b/s
Count of elements           : 1415
Stream size                 : 37.4 KiB (0%)
Language                    : English
Default                     : No
Forced                      : No

Menu
00:00:00.000                : en:00:00:00.000
00:11:02.542                : en:00:11:02.542
00:19:54.667                : en:00:19:54.667
00:29:11.792                : en:00:29:11.792
00:39:30.333                : en:00:39:30.333
00:47:49.083                : en:00:47:49.083
00:55:58.417                : en:00:55:58.417
01:05:02.000                : en:01:05:02.000
01:16:40.625                : en:01:16:40.625


Джерело: &
Звукозапис з ТБ: xslim
Зведення звуку: taraskill1
Особиста оцінка: 0 - не дивився


 Трекер:    Зареєстрований   

Завантажити / скачати мультфільм українською



відео для новачків



 Зареєстрований:   2020-05-03 11:45
 Розмір:   8.38 GB 
 Оцінка мультфільму:   9.4/10 (Голосів: 8)
   
Briareos 
Попереджень: 2
Попереджень: 2 


З нами з: 06.05.19
Востаннє: 28.02.21
Повідомлень: 86

2020-11-17 23:37  
Remux буде?
Ваш часовий пояс: GMT + 2 Години

Нова тема   Відповісти