Їжак Сонік / Sonic the Hedgehog (2020) 720p-mini

Нові коментарі

Нова тема   Відповісти
Автор Повідомлення
Drool 
VIP


З нами з: 17.04.10
Востаннє: 26.09.20
Повідомлень: 1548

2020-05-03 12:33  
Їжак Сонік / Sonic the Hedgehog (2020) 720p-mini
Трейлер

Жанр: комедія, пригодницький, сімейний, фантастика, екшн
Країна: США, Канада, Японія


Дітям рекомендується дивитися фільм з батьками
Рекомендується присутність батьків. Деякий матеріал, можливо, не підходить для дітей. Цей рейтинг показує, що оцінений фільм може містити деякі сцени, проглядання яких маленькими дітьми може не сподобатися їх батькам. Матеріал, який може бути присутнім у фільмі, повинен бути пояснений і розібраний з дітьми перш, ніж їм дозволять відвідати фільм. Явні сексуальні сцени і сцени вживання наркотиків відсутні; нагота, якщо присутня, то тільки дуже обмежено, жах і насильство не перевищують середнього рівня.
Кінокомпанія: Paramount Pictures, Sega Sammy Group, Original Film, Marza Animation Planet, Blur Studio, Canadian Film or Video Production Tax Credit
Режисер: Джефф Фавлер
Актори: Джим Керрі, Джеймс Марсден, Бен Шварц, Тіка Самптер, Ніл МакДонаф, Адам Паллі, Ліенн Лепп, Наташа Ротвелл, Лі Мадждуб, Френк Чарльз Тернер та інші.

Сюжет:
Одна далека та не схожа на Землю планета в небезпеці. Щоб її врятувати неймовірно швидкий, веселий і по-справжньому відважний їжак Сонік телепортувався до нашого рідного дому, а саме до США. Стрибок напруги після того, як енергійний їжак приземлився у нас, привів до зникнення електрики на всьому Північно-Західному узбережжі країни, що не пройшло повз увагу Пентагону. За Соніком уже почала полювання влада, і головний мисливець – доктор Роботник, який хоче захопити весь світ. Але першою людиною, що зустрілася їжаку, був Том Вачовськи. Це звичайний хлопець, який вирішив допомогти Соніку та не дати Роботнику здійснити свій жахливий план.


Тривалість: 01:38:53
Якість: 720p-mini (джерело Remux 1080p)
Відео:
кодек:
розмір кадру: 1280х536
бітрейт: 2612 кб/с

Аудіо:
мова: українська
переклад: професійний дубльований | студія LeDoyen |
кодек: 5.1
бітрейт: 384 кб/с

Субтитри:
мова: українська (форсовані)
тип: програмні (м'які)
формат: *.
x264Info + Info
Код:
[info]: frame I:2233  Avg QP:15,78  size: 94498
[info]: frame P:41018 Avg QP:18,70  size: 25115
[info]: frame B:99001 Avg QP:21,62  size:  7024
[info]: consecutive B-frames:  5,5%  2,1%  9,0% 83,3%
[info]: mb I  I16..4: 10,1% 69,5% 20,4%
[info]: mb P  I16..4:  1,8%  9,1%  1,6%  P16..4: 39,5% 21,8% 13,5%  0,0%  0,0%    skip:12,6%
[info]: mb B  I16..4:  0,2%  1,0%  0,2%  B16..8: 43,2%  8,5%  2,0%  direct: 3,7%  skip:41,2%  L0:44,6% L1:45,6% BI: 9,8%
[info]: 8x8 transform intra:72,0% inter:64,0%
[info]: direct mvs  spatial:97,1% temporal:2,9%
[info]: coded y,uvDC,uvAC intra: 81,6% 82,0% 59,7% inter: 16,6% 18,1% 5,6%
[info]: i16 v,h,dc,p: 14% 27%  9% 51%
[info]: i8 v,h,dc,ddl,ddr,vr,hd,vl,hu: 12% 11%  5%  9% 13% 11% 14% 10% 14%
[info]: i4 v,h,dc,ddl,ddr,vr,hd,vl,hu: 11% 16%  4%  8% 13% 12% 14%  9% 13%
[info]: i8c dc,h,v,p: 36% 27% 17% 19%
[info]: Weighted P-Frames: Y:4,0% UV:2,7%
[info]: ref P L0: 52,1%  9,4% 15,3%  7,2%  5,3%  4,0%  3,2%  1,9%  1,4%  0,2%  0,0%
[info]: ref B L0: 70,9% 14,8%  6,7%  2,9%  2,0%  1,5%  0,9%  0,3%
[info]: ref B L1: 93,2%  6,8%
[info]: kb/s:2611,25

General
Unique ID                                : 93194037850871002578857433197040068369 (0x461C84D0F6BD85D05FA144172C3B6711)
Complete name                            : /mnt/disk_e/Video/Films/Sonic.the.Hedgehog.2020.Ukr.Dub..720p-mini.UAGet.
Format                                   :
Format version                           : Version 4
File size                                : 2.07 GiB
Duration                                 : 1 h 38 min
Overall bit rate                         : 2 998 kb/s
Movie name                               : Їжак Сонік / Sonic the Hedgehog (2020) 720p-mini -=UAGet=-
Released date                            : 2020
Encoded date                             : UTC 2020-05-03 09:10:03
Writing application                      : v43.0.0 ('The Quartermaster') 64-bit
Writing library                          : libebml v1.3.10 + v1.5.2 / Lavf58.29.100
Cover                                    : Yes
Attachments                              : cover.jpg
ARTIST                                   : Джим Керрі, Джеймс Марсден, Бен Шварц, Тіка Самптер, Ніл МакДонаф, Адам Паллі...
DIRECTOR                                 : Джефф Фавлер
GENRE                                    : комедія, пригоди, сімейний, фантастика, екшн
SUMMARY                                  : https://www.imdb.com/title/tt3794354/
SYNOPSIS                                 : Одна далека та не схожа на Землю планета в небезпеці. Щоб її врятувати неймовірно швидкий, веселий і по-справжньому відважний їжак Сонік телепортувався до нашого рідного дому, а саме до США. Стрибок напруги після того, як енергійний їжак приземлився у нас, привів до зникнення електрики на всьому Північно-Західному узбережжі країни, що не пройшло повз увагу Пентагону. За Соніком уже почала полювання влада, і головний мисливець – доктор Роботник, який хоче захопити весь світ. Але першою людиною, що зустрілася їжаку, був Том Вачовськи. Це звичайний хлопець, який вирішив допомогти Соніку та не дати Роботнику здійснити свій жахливий план.

Video
ID                                       : 1
Format                                   : AVC
Format/Info                              : Advanced Video Codec
Format profile                           : [email protected]
Format settings                          : CABAC / 9 Ref Frames
Format settings, CABAC                   : Yes
Format settings, Reference frames        : 9 frames
Codec ID                                 : V_MPEG4/ISO/AVC
Duration                                 : 1 h 38 min
Bit rate                                 : 2 612 kb/s
Width                                    : 1 280 pixels
Height                                   : 536 pixels
Display aspect ratio                     : 2.40:1
Frame rate mode                          : Constant
Frame rate                               : 23.976 (24000/1001) FPS
Color space                              : YUV
Chroma subsampling                       : 4:2:0
Bit depth                                : 8 bits
Scan type                                : Progressive
Bits/(Pixel*Frame)                       : 0.159
Stream size                              : 1.80 GiB (87%)
Title                                    : Їжак Сонік / Sonic the Hedgehog (2020) 720p-mini -=UAGet=-
Writing library                          : core 148
Encoding settings                        : cabac=1 / ref=9 / deblock=1:-1:-1 / analyse=0x3:0x113 / me=umh / subme=10 / psy=1 / psy_rd=1,00:0,15 / mixed_ref=1 / me_range=32 / chroma_me=1 / trellis=2 / 8x8dct=1 / cqm=0 / deadzone=21,11 / fast_pskip=1 / chroma_qp_offset=-3 / threads=12 / lookahead_threads=1 / sliced_threads=0 / nr=0 / decimate=1 / interlaced=0 / bluray_compat=0 / constrained_intra=0 / bframes=3 / b_pyramid=2 / b_adapt=1 / b_bias=0 / direct=3 / weightb=1 / open_gop=0 / weightp=2 / keyint=240 / keyint_min=24 / scenecut=40 / intra_refresh=0 / rc_lookahead=50 / rc=2pass / mbtree=1 / bitrate=2612 / ratetol=1,0 / qcomp=0,60 / qpmin=0 / qpmax=69 / qpstep=4 / cplxblur=20,0 / qblur=0,5 / vbv_maxrate=62500 / vbv_bufsize=78125 / nal_hrd=none / filler=0 / ip_ratio=1,40 / aq=1:1,00
Default                                  : Yes
Forced                                   : Yes
Color range                              : Limited
Color primaries                          : BT.709
Transfer characteristics                 : BT.709
Matrix coefficients                      : BT.709

Audio
ID                                       : 2
Format                                   : AC-3
Format/Info                              : Audio Coding 3
Commercial name                          : Dolby Digital
Codec ID                                 : A_AC3
Duration                                 : 1 h 38 min
Bit rate mode                            : Constant
Bit rate                                 : 384 kb/s
Channel(s)                               : 6 channels
Channel layout                           : L R C LFE Ls Rs
Sampling rate                            : 48.0 kHz
Frame rate                               : 31.250 FPS (1536 SPF)
Compression mode                         : Lossy
Stream size                              : 272 MiB (13%)
Title                                    : , 5.1, 384 Kbps
Language                                 : Ukrainian
Service kind                             : Complete Main
Default                                  : Yes
Forced                                   : Yes

Text
ID                                       : 3
Format                                   :
Codec ID                                 : S_TEXT/
Codec ID/Info                            : Advanced Sub Station Alpha
Duration                                 : 1 h 35 min
Bit rate                                 : 2 b/s
Count of elements                        : 29
Compression mode                         : Lossless
Stream size                              : 1.68 KiB (0%)
Title                                    : Forced
Language                                 : Ukrainian
Default                                  : Yes
Forced                                   : Yes
Скріншоти
Реліз від: &
Особиста оцінка: 8 - мені сподобалося
Подяка trofum911 за наданий 5.1 звук


 Трекер:    Зареєстрований   

Завантажити / скачати фільм українською



відео для новачків



 Зареєстрований:   2020-05-03 12:33
 Розмір:   2.07 GB 
 Оцінка фільму:   8.8/10 (Голосів: 8)
   
Drool 
VIP


З нами з: 17.04.10
Востаннє: 26.09.20
Повідомлень: 1548

2020-05-03 12:53  
Роздаю з укуртелекома в режимі "суперсід". Тому якщо ви в себе звужуєте канал чи блокуєте роздачу - ви самі собі злобні буратіни.
igor911 
Модератор відео


З нами з: 18.01.08
Востаннє: 26.09.20
Повідомлень: 15006

2020-05-03 12:59  
Drool, звук теж купував той трекер?
Drool 
VIP


З нами з: 17.04.10
Востаннє: 26.09.20
Повідомлень: 1548

2020-05-03 13:03  
igor911 написано:
Drool, звук теж купував той трекер?

Вибачаюсь. Вказав і джерело відеоряду також.

Ваш часовий пояс: GMT + 2 Години

Нова тема   Відповісти