[збір коштів] Голлівуд (Сезон 1, серії 1-2) / Hollywood (Season 1, episodes 1-2) (2020) 1080p Ukr/Eng

Нові коментарі

Нова тема   Відповісти
Автор Повідомлення
Цікава ідея 
VIP


З нами з: 26.12.11
Востаннє: 27.05.20
Повідомлень: 406

2020-05-02 19:54  
AVC | 1080p

[збір коштів] Голлівуд (Сезон 1, серії 1-2) / Hollywood (Season 1, episodes 1-2) (2020) 1080p Ukr/Eng


[збір коштів] Голлівуд (Сезон 1, серії 1-2) / Hollywood (Season 1, episodes 1-2) (2020) 1080p Ukr/Eng


Жанр: драма
Країна: США



Кінокомпанія / телеканал: Netflix
Режисери: Ян Бренан, Райан Мерфі
Актори: Даррен Крісс, Девід Коренсвет, Джеремі Поуп, Лора Херріер, Самара Вівінг та інші.

Сюжет:
Серіал від творця «Американської історії жаху» Райана Мерфі про групу акторів і кінематографістів, які намагаються досягти успіху в Голлівуді 40-х років XX століття.


На озвучення серіалу проходить ЗБІР КОШТІВ

Перекладено та озвучено ТО "Цікава Ідея" за підтримки сайту UASERIALS.PRO


Український трейлер в нашому озвученні.


ЯКЩО НЕ ПРАЦЮЄ ТИЦЬ СЮДИ


Тривалість: 1 серія: ~ 55 хв. (цілком серій: 2/7)
Перелік серій:

01. Hooray for Hollywood
02. Hooray for Hollywood: Part 2
03. Outlaws
04. (Screen) Tests
05. Jump
06. Meg
07. A Hollywood Ending
Якість: 1080p
Відео:
кодек:
розмір кадру: 1920 x 872
бітрейт: 11.5 мб/с

Аудіо # 1:
мова: українська | "Цікава Ідея"
переклад: професійний багатоголосий закадровий
кодек: 5.1
бітрейт: 448 кб/с

Аудіо # 2:
мова: англійська
переклад: оригінал
кодек: E- 5.1
бітрейт: 768 кб/с
Info
Код:
Format                      :
Format version              : Version 4
File size                   : 4.04 GiB
Duration                    : 44 min 40 s
Overall bit rate            : 12.9 Mb/s
Movie name                  : Голлівуд / Hollywood - S01E01 (2020) 1080p [Ukr.Eng] [Цікава Ідея]
Encoded date                : UTC 2020-05-13 04:27:34
Writing application         : v6.8.0 ('Theme for Great Cities') 32bit built on Mar  2 2014 21:27:07
Writing library             : libebml v1.3.0 + v1.4.1
Cover                       : Yes
Attachments                 : cover.png

Video
ID                          : 1
Format                      : AVC
Format/Info                 : Advanced Video Codec
Format profile              : [email protected]
Format settings             : CABAC / 4 Ref Frames
Format settings, CABAC      : Yes
Format settings, Reference  : 4 frames
Codec ID                    : V_MPEG4/ISO/AVC
Duration                    : 44 min 40 s
Bit rate                    : 11.5 Mb/s
Width                       : 1 920 pixels
Height                      : 872 pixels
Display aspect ratio        : 2.2:1
Frame rate mode             : Constant
Frame rate                  : 23.976 (24000/1001) FPS
Color space                 : YUV
Chroma subsampling          : 4:2:0
Bit depth                   : 8 bits
Scan type                   : Progressive
Bits/(Pixel*Frame)          : 0.286
Stream size                 : 3.58 GiB (89%)
Writing library             : core 159 r2991+50 29469ee t_mod_New [[email protected] X86_64]
Encoding settings           : cabac=1 / ref=4 / deblock=1:-3:-3 / analyse=0x3:0x133 / me=umh / subme=10 / psy=1 / fade_compensate=0.00 / psy_rd=1.00:0.15 / mixed_ref=1 / me_range=48 / chroma_me=1 / trellis=2 / 8x8dct=1 / cqm=0 / deadzone=21,11 / fast_pskip=0 / chroma_qp_offset=-3 / threads=18 / lookahead_threads=3 / sliced_threads=0 / nr=0 / decimate=0 / interlaced=0 / bluray_compat=0 / constrained_intra=0 / fgo=0 / bframes=8 / b_pyramid=2 / b_adapt=2 / b_bias=0 / direct=3 / weightb=1 / open_gop=0 / weightp=2 / keyint=250 / keyint_min=23 / scenecut=40 / intra_refresh=0 / rc=crf / mbtree=0 / crf=18.0000 / qcomp=0.60 / qpmin=0:0:0 / qpmax=69:69:69 / qpstep=4 / ip_ratio=1.30 / pb_ratio=1.20 / aq=3:0.80 / aq-sensitivity=10.00 / aq-factor=1.00:1.00:1.00 / aq2=0 / aq3=0
Default                     : Yes
Forced                      : No

Audio #1
ID                          : 2
Format                      : AC-3
Format/Info                 : Audio Coding 3
Commercial name             : Dolby Digital
Codec ID                    : A_AC3
Duration                    : 44 min 40 s
Bit rate mode               : Constant
Bit rate                    : 448 kb/s
Channel(s)                  : 6 channels
Channel layout              : L R C LFE Ls Rs
Sampling rate               : 48.0 kHz
Frame rate                  : 31.250 FPS (1536 SPF)
Bit depth                   : 16 bits
Compression mode            : Lossy
Stream size                 : 143 MiB (3%)
Title                       : Українська
Language                    : Ukrainian
Service kind                : Complete Main
Default                     : Yes
Forced                      : No

Audio #2
ID                          : 3
Format                      : E-AC-3 JOC
Format/Info                 : Enhanced AC-3 with Joint Object Coding
Commercial name             : Dolby Digital Plus with Dolby Atmos
Codec ID                    : A_EAC3
Duration                    : 44 min 40 s
Bit rate mode               : Constant
Bit rate                    : 768 kb/s
Channel(s)                  : 6 channels
Channel layout              : L R C LFE Ls Rs
Sampling rate               : 48.0 kHz
Frame rate                  : 31.250 FPS (1536 SPF)
Compression mode            : Lossy
Stream size                 : 245 MiB (6%)
Title                       : English
Language                    : English
Service kind                : Complete Main
Default                     : No
Forced                      : No
Complexity index            : 16
Number of dynamic objects   : 15
Bed channel count           : 1 channel
Bed channel configuration   : LFE
Скріншоти



Озвучено творчим об'єднанням:
Ролі озвучили: Семен Птаха, Юлія Малахова, Олексій Сафін, Ганна Квочкіна, Андрій Корзаченко та Матвій Ніколаєв


Авторський реліз (завантажувати можна без реєстрації)
 Трекер:    Зареєстрований   

Завантажити / скачати серіал українською



відео для новачків



 Зареєстрований:   2020-05-21 20:32
 Розмір:   8.57 GB 
 Оцінка серіалу:   9.5/10 (Голосів: 6)
 Перекладено та озвучено 2 серію.
   
Цікава ідея 
VIP


З нами з: 26.12.11
Востаннє: 27.05.20
Повідомлень: 406

2020-05-03 22:36  
Український трейлер в нашому озвученні.


ЯКЩО НЕ ПРАЦЮЄ ТИЦЬ СЮДИ

[Captain] 
VIP


З нами з: 19.02.12
Востаннє: 27.05.20
Повідомлень: 2263

2020-05-03 22:43  
Шоу отримали стримані відгуки, тож я не дивитимуся. А кошти можна й на культові речі витратити, гадаю.
bot 
робот


З нами з: 30.09.07
Востаннє: 26.05.05
Повідомлень: 24564

2020-05-13 10:27  
Тему перенесено з Анонси релізів до форуму Серіали в HD


Цікава ідея

Цікава ідея 
VIP


З нами з: 26.12.11
Востаннє: 27.05.20
Повідомлень: 406

2020-05-13 10:30  
Друзі, ми переклали та озвучили 1 серію!
Підтримайте озвучення наступних серій,
реквізити в описі релізу.

Бажаємо приємного перегляду!

Цікава ідея 
VIP


З нами з: 26.12.11
Востаннє: 27.05.20
Повідомлень: 406

2020-05-21 20:34  
Друзі, ми переклали та озвучили 2 серію!
Підтримайте озвучення наступних серій,
реквізити в описі релізу.

Бажаємо приємного перегляду!

Ваш часовий пояс: GMT + 2 Години

Нова тема   Відповісти