Захищаючи Джейкоба (Сезон 1) / Defending Jacob (Season 1) (2020) 720p Eng | Sub Ukr/Eng

Нові коментарі

Нова тема   Відповісти
Автор Повідомлення
Anonymous 







2020-05-01 22:23  
Захищаючи Джейкоба (Сезон 1) / Defending Jacob (Season 1) (2020) 720p Eng | Sub Ukr/Eng

Захищаючи Джейкоба (Сезон 1) / Defending Jacob (Season 1) (2020) 720p Eng | Sub Ukr/Eng


Жанр: драма, детектив, трилер
Країна: США



Кінокомпанія: Anonymous Content, Paramount Television, Apple TV+
Актори: Кріс Еванс, Мішель Докері, Джейден Мартелл, Бетті Ґабріель, Сакіна Джаффрі, Черрі Джонс та інші

Сюжет:
У центрі сюжету – історія окружного прокурора Ендрю Барбері, який успішно працює у штаті Массачусетс. Однак його звичайні будні припиняються, коли 14-річного сина звинувачують у вбивстві однокласника. Тому Ендрю береться за власне розслідування і намагається виправдати свого нащадка.
Український та офіційний трейлери:
Трейлер в українському озвученні від DniproFilm:


офіційний трейлер:

Рейтинг у США: TV-MA - не рекомендується до перегляду дітьми до 17 років
Вікова категорія: 16+

Тривалість: 1 серія: 45-65 хвилин (цілком серій: 8)
Перелік серій, дата виходу

S01E01 Pilot, April 24, 2020
S01E02 Everything Is Cool, April 24, 2020
S01E03 Poker Faces, April 24, 2020
S01E04 Damage Control, May 1, 2020
S01E05 Visitors, May 8, 2020
S01E06 Wishful Thinking, May 15, 2020
S01E07 Job, May 22, 2020
S01E08 After, May 29, 2020
Якість: 720p
Відео:
кодек:
розмір кадру: 1356х678
бітрейт: ~2840 кб/с

Аудіо:
мова: англійська
переклад: оригінал
кодек: 5.1
бітрейт: 448 кб/с / 384 кб/с (4а серія)

Субтитри # 1:
мова: українська
тип: програмні (м'які)
формат: *.srt
переклад: Олена Цехмейструк

Субтитри # 2-3:
мова: англійська (повні, SDH)
тип: програмні (м'які)
формат: *.srt
Info
Код:
Complete name               : S01E07.Defending Jacob (2020) [Eng sub.Ukr,Eng] 720p [Hurtom].
Format                      :
Format version              : Version 4
File size                   : 1.23 GiB
Duration                    : 53 min 24 s
Overall bit rate            : 3 300 kb/s
Movie name                  : S01E07 [Job] Захищаючи Джейкоба / Defending Jacob (2020) [Eng sub.Ukr,Eng] 720p [Hurtom]
Encoded date                : UTC 2020-05-22 16:45:49
Writing application         : v46.0.0 ('No Deeper Escape') 64-bit
Writing library             : libebml v1.3.10 + v1.5.2
Cover                       : Yes
Attachments                 : cover.jpg

Video
ID                          : 1
Format                      : AVC
Format/Info                 : Advanced Video Codec
Format profile              : [email protected]
Format settings             : CABAC / 5 Ref Frames
Format settings, CABAC      : Yes
Format settings, Reference  : 5 frames
Codec ID                    : V_MPEG4/ISO/AVC
Duration                    : 53 min 24 s
Bit rate                    : 2 849 kb/s
Width                       : 1 356 pixels
Height                      : 678 pixels
Display aspect ratio        : 2.000
Frame rate mode             : Constant
Frame rate                  : 23.976 (24000/1001) FPS
Color space                 : YUV
Chroma subsampling          : 4:2:0
Bit depth                   : 8 bits
Scan type                   : Progressive
Bits/(Pixel*Frame)          : 0.129
Stream size                 : 1.06 GiB (86%)
Title                       : S01E07 Захищаючи Джейкоба / Defending Jacob (2020) 720p [ATVP, CasStudio]
Language                    : English
Default                     : Yes
Forced                      : No
Color range                 : Limited
Color primaries             : BT.709
Transfer characteristics    : BT.709
Matrix coefficients         : BT.709

Audio
ID                          : 2
Format                      : AC-3
Format/Info                 : Audio Coding 3
Commercial name             : Dolby Digital
Codec ID                    : A_AC3
Duration                    : 53 min 24 s
Bit rate mode               : Constant
Bit rate                    : 448 kb/s
Channel(s)                  : 6 channels
Channel layout              : L R C LFE Ls Rs
Sampling rate               : 48.0 kHz
Frame rate                  : 31.250 FPS (1536 SPF)
Compression mode            : Lossy
Stream size                 : 171 MiB (14%)
Language                    : English
Service kind                : Complete Main
Default                     : Yes
Forced                      : No

Text #1
ID                          : 3
Format                      : UTF-8
Codec ID                    : S_TEXT/UTF8
Codec ID/Info               : UTF-8 Plain Text
Duration                    : 52 min 16 s
Bit rate                    : 119 b/s
Count of elements           : 789
Stream size                 : 45.9 KiB (0%)
Title                       : Ukr Full [Apple TV+]
Language                    : Ukrainian
Default                     : Yes
Forced                      : Yes

Text #2
ID                          : 4
Format                      : UTF-8
Codec ID                    : S_TEXT/UTF8
Codec ID/Info               : UTF-8 Plain Text
Duration                    : 49 min 39 s
Bit rate                    : 80 b/s
Count of elements           : 762
Stream size                 : 29.4 KiB (0%)
Title                       : Eng Full
Language                    : English
Default                     : No
Forced                      : No

Text #3
ID                          : 5
Format                      : UTF-8
Codec ID                    : S_TEXT/UTF8
Codec ID/Info               : UTF-8 Plain Text
Duration                    : 50 min 22 s
Bit rate                    : 84 b/s
Count of elements           : 816
Stream size                 : 31.2 KiB (0%)
Title                       : Eng SDH
Language                    : English
Default                     : No
Forced                      : No





Джерело: &
Подяка п.DanyZemlyanoy за українізацію постера.


Бронзовий реліз (на рейтинг впливає 75% завантаженого)
 Трекер:    Зареєстрований   

Завантажити / скачати серіал українською



відео для новачків



 Зареєстрований:   2020-05-29 10:25
 Розмір:   9.32 GB 
 Оцінка серіалу:   9.9/10 (Голосів: 14)
 ЗАЛИШАЙТЕСЬ ЯКОМОГА ДОВШЕ НА РОЗДАЧІ! ЗАВАНТАЖИВ САМ - ДАЙ ЗАВАНТАЖИТИ ІНШИМ!
   
bot 
робот


З нами з: 30.09.07
Востаннє: 26.05.05
Повідомлень: 24608

2020-05-02 20:47  
Тему перенесено з Анонси релізів до форуму Телесеріали


igor911

IRONHIDE 
VIP


З нами з: 06.08.10
Востаннє: 01.06.20
Повідомлень: 272

2020-05-02 23:14  
Шикарний серіал з Крісом! Переглянув з дружиною на English 4 серії відразу. Одноголосні переклади не для мене!!! Надіюсь, що колись можливо він і буде мати нормальний кінотеатральний(ролі, які дублюють у кіно) дубляж! Як от Чорнобиль або Шерлок.
Anonymous 







2020-05-08 21:43  
+5а серія
Anonymous 







2020-05-15 21:41  
+6а серія
bstefanyshyn 
Частий відвідувач


З нами з: 02.02.12
Востаннє: 31.05.20
Повідомлень: 30

2020-05-17 13:06  
Найкраще, що можна переглянути, чекаючи другий сезон See. Постійно тримає в напруженні. Шкода, що лише 8 серій.
PS: Хоч і любитель техніки Apple, але в цьому серіалі з рекламою iPhone і Macbook вони перебрали.

Anonymous 







2020-05-22 19:54  
+ 7а серія
Anonymous 







2020-05-29 10:27  
Додано фінальну 8-у серію.
HorosheKino 
Частий відвідувач


З нами з: 17.10.19
Востаннє: 01.06.20
Повідомлень: 30

2020-05-29 11:09  
спасибі!
ExorcistZp 
Свій


З нами з: 23.09.14
Востаннє: 01.06.20
Повідомлень: 60

2020-05-31 03:50  
Серіал розкішний... Rolleyes (4) Подивились з чоловіком лише 4 серії, але за один день. Тож робити висновки і ставляти оцінку зарано. Поки що сюжет захоплює, гра акторів теж... Кріса Еванса люблю безмежно.
Вже не терпиться додивитись.

taksist 
VIP


З нами з: 10.12.12
Востаннє: 02.06.20
Повідомлень: 361

2020-06-01 14:59  
ніж роздавати оскари за всіляку політкоректну муть краще віддали б мішель докері.
неймовірно зіграла.

ExorcistZp 
Свій


З нами з: 23.09.14
Востаннє: 01.06.20
Повідомлень: 60

2020-06-01 23:43  
Додивились останню серію. Трішки кінцівка підкачала, як на мене. Книгу одноіменну не читала, але поцікавилась розв"язкою, там дещо цікавіше.
Фільм не вау сильний детектив. Він більше про життя в середині біди, як вона впливає, кривдить, руйнує навколо себе. Дуже багато фундаментальних речей розглянуто... Як складно відмитися, одного разу забруднившись. Як складно бути хорошим батьком і хорошою людиною одночасно. Як важко припинити сумніватися і озиратися, знову почати жити. А ще, що хорошими намірами встелена дорога до пекла.
Що я винесла особисто для себе... Воістину, глибина людини не обумовлена її моральністю. Мораль була створена для того, щоб захистити слабких. Її придумали люди. Набагато важливіше відчувати емпатію до людини. Саме те, що ти відчуваєш і є справжнє. Відчуєш яким може бути чужий біль - ніколи його не завдаш. Кінцівка відкрита. Моя особиста думка,
що вбивця Джейкоб.

Ваш часовий пояс: GMT + 2 Години

Нова тема   Відповісти