Playmobil: Фільм / Playmobil: The Movie (2019) BD Remux 1080p Ukr/Eng | sub Eng

Нові коментарі

Нова тема   Відповісти
Автор Повідомлення
sergiyko.5 
VIP


З нами з: 25.02.16
Востаннє: 08.07.20
Повідомлень: 3241

2020-05-01 17:57  
Playmobil: Фільм / Playmobil: The Movie (2019) BD Remux 1080p Ukr/Eng | sub Eng


Playmobil: Фільм / Playmobil: The Movie (2019) BD Remux 1080p Ukr/Eng | sub Eng

Жанр: комедія, мюзикл, пригоди, сімейний, фентезі
Країна: Франція, Німеччина, Китай, Канада
Кінокомпанія: DMG Entertainment
Режисер: Ліно ДіСальво
Ролі озвучують: Аня Тейлор-Джой, Гебріел Бейтман, Джим Гаффіган, Деніел Редкліфф, Меган Трейнор, Адам Ламберт, Кенан Томпсон, Кірк Торнтон, Ден Наварро, Меттью В. Тейлор

Сюжет:
Чарлі несподівано потрапляє в чарівний всесвіт PLAYMOBIL®. Стурбована раптовим зникненням брата, старша сестра Марла відважно відправляється на його пошуки. Марлу чекає фантастична подорож по дивних нових світах. По дорозі вона познайомиться і подружиться з неймовірними героями. Серед них Дел, оптимістичний і невгамовний водій пересувної закусочної; Рекс Дашер, нестримний і самозакоханий секретний агент; чуйний і відданий робот; добра, але норовлива фея і багато інших. Неймовірні пригоди допомагають Марлі і Чарлі зрозуміти, що, незважаючи на будь-які складнощі, головне - завжди вірити в себе. І тоді навіть неможливе стане можливим!




Тривалість: 01:39:21
Якість: BD Remux

Відео: кодек: VC-1 розмір кадру: 1920 x 1080 бітрейт: 22300 кб/с
Аудіо 1: мова: українська переклад: професійний дубльований кодек: 5.1 бітрейт: 448 кб/с
Аудіо 2: мова: англійська переклад: оригінал кодек: -HD MA 5.1 бітрейт: 1931 кб/с
Субтитри: мова: англійська тип: програмні (м'які) формат: *.srt

Додаткова інформація: перед завантаженням переконайтесь, що ваш пристрій відтворення підтримує відеокодек цього релізу!
Про файл:
General
Unique ID : 165602510092783031963216009457106082044 (0x7C95E2204C73375D9A8D306BE07AD8FC)
Complete name : D:\Documents\Torrents\MULTSER_2\Playmobil.The.Movie.2019.1080p.Remux.Ukr.Eng.
Format :
Format version : Version 4
File size : 17.1 GiB
Duration : 1 h 39 min
Overall bit rate mode : Variable
Overall bit rate : 24.7 Mb/s
Movie name : Playmobil The Movie 2019 by sergiyko
Encoded date : UTC 2020-05-01 14:25:02
Writing application : v44.0.0 ('Domino') 64-bit
Writing library : libebml v1.3.10 + v1.5.2
Cover : Yes
Attachments : cover.jpeg

Video
ID : 1
Format : VC-1
Format profile : [email protected]
Codec ID : V_MS/VFW/FOURCC / WVC1
Codec ID/Hint : Microsoft
Duration : 1 h 39 min
Bit rate : 22.3 Mb/s
Width : 1 920 pixels
Height : 1 080 pixels
Display aspect ratio : 16:9
Frame rate mode : Constant
Frame rate : 23.976 (24000/1001) FPS
Color space : YUV
Chroma subsampling : 4:2:0
Bit depth : 8 bits
Scan type : Progressive
Compression mode : Lossy
Bits/(Pixel*Frame) : 0.448
Stream size : 15.5 GiB (90%)
Title : Playmobil The Movie 2019
Language : English
Default : Yes
Forced : No

Audio #1
ID : 2
Format : AC-3
Format/Info : Audio Coding 3
Commercial name : Dolby Digital
Codec ID : A_AC3
Duration : 1 h 39 min
Bit rate mode : Constant
Bit rate : 448 kb/s
Channel(s) : 6 channels
Channel layout : L R C LFE Ls Rs
Sampling rate : 48.0 kHz
Frame rate : 31.250 FPS (1536 SPF)
Compression mode : Lossy
Stream size : 318 MiB (2%)
Title : DUB 5.1ch
Language : Ukrainian
Service kind : Complete Main
Default : Yes
Forced : Yes

Audio #2
ID : 3
Format : XLL
Format/Info : Digital Theater Systems
Commercial name : -HD Master Audio
Codec ID : A_DTS
Duration : 1 h 39 min
Bit rate mode : Variable
Bit rate : 1 931 kb/s
Channel(s) : 6 channels
Channel layout : C L R Ls Rs LFE
Sampling rate : 48.0 kHz
Frame rate : 93.750 FPS (512 SPF)
Bit depth : 16 bits
Compression mode : Lossless
Stream size : 1.34 GiB (8%)
Title : Original
Language : English
Default : No
Forced : No

Text
ID : 4
Format : UTF-8
Codec ID : S_TEXT/UTF8
Codec ID/Info : UTF-8 Plain Text
Duration : 1 h 38 min
Bit rate : 84 b/s
Count of elements : 1912
Stream size : 60.7 KiB (0%)
Title : SDH
Language : English
Default : No
Forced : No

Menu
00:00:00.000 : en:Chapter 01
00:07:35.455 : en:Chapter 02
00:15:43.943 : en:Chapter 03
00:24:42.481 : en:Chapter 04
00:33:37.015 : en:Chapter 05
00:40:46.444 : en:Chapter 06
00:49:43.981 : en:Chapter 07
00:58:01.478 : en:Chapter 08
01:06:15.972 : en:Chapter 09
01:14:41.477 : en:Chapter 10
01:24:06.041 : en:Chapter 11
01:32:05.520 : en:Chapter 12
Скріншоти:


Придбано: sergiyko
Зведення: sergiyko


Золотий реліз (завантажене не впливає на рейтинг)
 Трекер:    Зареєстрований   

Завантажити / скачати мультфільм українською



відео для новачків



 Зареєстрований:   2020-05-01 17:57
 Розмір:   17.12 GB 
 Оцінка мультфільму:   10/10 (Голосів: 5)
   
Інші релізи
antik_2008 
Релізер і модератор відео


З нами з: 20.10.08
Востаннє: 09.07.20
Повідомлень: 3925

2020-05-01 19:00  
sergiyko.5 Дякую! І переглянемо. Happy

avi теж чекати ?

sergiyko.5 
VIP


З нами з: 25.02.16
Востаннє: 08.07.20
Повідомлень: 3241

2020-05-01 19:40  
antik_2008 написано:
avi теж чекати ?

Ні. Я не підтримую стародавні не якісні кодеки. Та й електроенергія зникла в мережі.

Ваш часовий пояс: GMT + 2 Години

Нова тема   Відповісти