Playmobil: Фільм / Playmobil: The Movie (2019) 720p Ukr/Eng | sub Eng

Нові коментарі

Нова тема   Відповісти
Автор Повідомлення
sergiyko.5 
VIP


З нами з: 25.02.16
Востаннє: 08.07.20
Повідомлень: 3241

2020-05-01 17:20  
Playmobil: Фільм / Playmobil: The Movie (2019) 720p Ukr/Eng | sub Eng


Playmobil: Фільм / Playmobil: The Movie (2019) 720p Ukr/Eng | sub Eng

Жанр: комедія, мюзикл, пригоди, сімейний, фентезі
Країна: Франція, Німеччина, Китай, Канада
Кінокомпанія: DMG Entertainment
Режисер: Ліно ДіСальво
Ролі озвучують: Аня Тейлор-Джой, Гебріел Бейтман, Джим Гаффіган, Деніел Редкліфф, Меган Трейнор, Адам Ламберт, Кенан Томпсон, Кірк Торнтон, Ден Наварро, Меттью В. Тейлор

Сюжет:
Чарлі несподівано потрапляє в чарівний всесвіт PLAYMOBIL®. Стурбована раптовим зникненням брата, старша сестра Марла відважно відправляється на його пошуки. Марлу чекає фантастична подорож по дивних нових світах. По дорозі вона познайомиться і подружиться з неймовірними героями. Серед них Дел, оптимістичний і невгамовний водій пересувної закусочної; Рекс Дашер, нестримний і самозакоханий секретний агент; чуйний і відданий робот; добра, але норовлива фея і багато інших. Неймовірні пригоди допомагають Марлі і Чарлі зрозуміти, що, незважаючи на будь-які складнощі, головне - завжди вірити в себе. І тоді навіть неможливе стане можливим!




Тривалість: 01:39:21
Якість:

Відео: кодек: Н.264 розмір кадру: 1280 x 536 бітрейт: 5800 кб/с
Аудіо 1: мова: українська переклад: професійний дубльований кодек: 5.1 бітрейт: 448 кб/с
Аудіо 2: мова: англійська переклад: оригінал кодек: 5.1 бітрейт: 448 кб/с
Субтитри: мова: англійська тип: програмні (м'які) формат: *.srt
Про файл:
General
Unique ID : 300298165800900724253484568221778879664 (0xE1EB52AE8EFBBA46A1D6757F46E6A4B0)
Complete name : D:\Documents\Torrents\MULTSER_2\Playmobil.The.Movie.2019..720p.Ukr.Eng.
Format :
Format version : Version 4
File size : 4.77 GiB
Duration : 1 h 39 min
Overall bit rate : 6 871 kb/s
Movie name : Playmobil The Movie 2019 by sergiyko
Encoded date : UTC 2020-05-01 13:21:35
Writing application : v44.0.0 ('Domino') 64-bit
Writing library : libebml v1.3.10 + v1.5.2
Cover : Yes
Attachments : cover.jpeg

Video
ID : 1
Format : AVC
Format/Info : Advanced Video Codec
Format profile : [email protected]
Format settings : CABAC / 12 Ref Frames
Format settings, CABAC : Yes
Format settings, Reference fra : 12 frames
Codec ID : V_MPEG4/ISO/AVC
Duration : 1 h 39 min
Bit rate : 5 781 kb/s
Width : 1 280 pixels
Height : 536 pixels
Display aspect ratio : 2.40:1
Frame rate mode : Constant
Frame rate : 23.976 (24000/1001) FPS
Color space : YUV
Chroma subsampling : 4:2:0
Bit depth : 8 bits
Scan type : Progressive
Bits/(Pixel*Frame) : 0.351
Stream size : 4.01 GiB (84%)
Title : Playmobil The Movie 2019
Writing library : core 158 r2988+50 ~ Encoded by Mocunaman in Portugal
Encoding settings : cabac=1 / ref=12 / deblock=1:1:1 / analyse=0x3:0x113 / me=umh / subme=11 / psy=1 / fade_compensate=0.00 / psy_rd=1.00:0.00 / mixed_ref=1 / me_range=32 / chroma_me=1 / trellis=2 / 8x8dct=1 / cqm=0 / deadzone=21,11 / fast_pskip=0 / chroma_qp_offset=-2 / threads=17 / lookahead_threads=2 / sliced_threads=0 / nr=0 / decimate=0 / interlaced=0 / bluray_compat=0 / constrained_intra=0 / fgo=0 / bframes=8 / b_pyramid=2 / b_adapt=2 / b_bias=0 / direct=3 / weightb=1 / open_gop=0 / weightp=2 / keyint=250 / keyint_min=23 / scenecut=40 / intra_refresh=0 / rc_lookahead=60 / rc=crf / mbtree=0 / crf=14.5000 / qcomp=0.60 / qpmin=0:0:0 / qpmax=69:69:69 / qpstep=4 / vbv_maxrate=30000 / vbv_bufsize=38000 / crf_max=0.0 / nal_hrd=none / filler=0 / ip_ratio=1.30 / pb_ratio=1.20 / aq=3:0.80 / aq-sensitivity=10.00 / aq-factor=1.00:1.00:1.00 / aq2=0 / aq3=0
Language : English
Default : Yes
Forced : No
Color range : Limited
Color primaries : BT.709
Transfer characteristics : BT.709
Matrix coefficients : BT.709

Audio #1
ID : 2
Format : AC-3
Format/Info : Audio Coding 3
Commercial name : Dolby Digital
Codec ID : A_AC3
Duration : 1 h 39 min
Bit rate mode : Constant
Bit rate : 448 kb/s
Channel(s) : 6 channels
Channel layout : L R C LFE Ls Rs
Sampling rate : 48.0 kHz
Frame rate : 31.250 FPS (1536 SPF)
Compression mode : Lossy
Stream size : 318 MiB (7%)
Title : DUB 5.1ch
Language : Ukrainian
Service kind : Complete Main
Default : Yes
Forced : Yes

Audio #2
ID : 3
Format : AC-3
Format/Info : Audio Coding 3
Commercial name : Dolby Digital
Codec ID : A_AC3
Duration : 1 h 39 min
Bit rate mode : Constant
Bit rate : 640 kb/s
Channel(s) : 6 channels
Channel layout : L R C LFE Ls Rs
Sampling rate : 48.0 kHz
Frame rate : 31.250 FPS (1536 SPF)
Compression mode : Lossy
Stream size : 455 MiB (9%)
Title : Original
Language : English
Service kind : Complete Main
Default : No
Forced : No

Text
ID : 4
Format : UTF-8
Codec ID : S_TEXT/UTF8
Codec ID/Info : UTF-8 Plain Text
Duration : 1 h 38 min
Bit rate : 84 b/s
Count of elements : 1912
Stream size : 60.7 KiB (0%)
Title : SDH
Language : English
Default : No
Forced : No

Menu
00:00:00.000 : en:Chapter 01
00:07:35.455 : en:Chapter 02
00:15:43.943 : en:Chapter 03
00:24:42.481 : en:Chapter 04
00:33:37.015 : en:Chapter 05
00:40:46.444 : en:Chapter 06
00:49:43.981 : en:Chapter 07
00:58:01.478 : en:Chapter 08
01:06:15.972 : en:Chapter 09
01:14:41.477 : en:Chapter 10
01:24:06.041 : en:Chapter 11
01:32:05.520 : en:Chapter 12
Скріншоти:


Придбано: sergiyko
Зведення: sergiyko


 Трекер:    Зареєстрований   

Завантажити / скачати мультфільм українською



відео для новачків



 Зареєстрований:   2020-05-01 17:20
 Розмір:   4.77 GB 
 Оцінка мультфільму:   9.8/10 (Голосів: 5)
   
Інші релізи
Ваш часовий пояс: GMT + 2 Години

Нова тема   Відповісти