Хто боїться Вірджинії Вулф? / Who's Afraid of Virginia Woolf? (1966) 1080p Ukr/Eng | Sub Eng

Нові коментарі

Нова тема   Відповісти
Автор Повідомлення
taraskill1 
Відео Гуртом - фільмокрай
Відео Гуртом - фільмокрай


З нами з: 21.01.12
Востаннє: 26.09.20
Повідомлень: 1263

2020-05-01 12:57  
Хто боїться Вірджинії Вулф? / Who's Afraid of Virginia Woolf? (1966) 1080p Ukr/Eng | Sub Eng

Хто боїться Вірджинії Вулф? / Who's Afraid of Virginia Woolf? (1966) 1080p Ukr/Eng | Sub Eng
Український постер від п.zgryvus'а


Жанр: драма
Країна: США



Кінокомпанія: Warner Bros., Chenault Productions
Режисер: Майк Ніколс / Mike Nichols
Актори: Елізабет Тейлор / Elizabeth Taylor, Річард Бартон / Richard Burton, Джордж Сіґал / George Segal, Сенді Денніс / Sandy Dennis, Аґнес Фленеґан / Agnes Flanagan, Френк Фленеґан / Frank Flanagan

Сюжет:
Джордж - подавлений життям професор історії, невдаха, одружений на Марті, відвертій розпусниці й алкоголічці. Після двадцяти років шлюбу їхні відносини доходять до безмежної ненависті. На одній з факультетських вечірок вони знайомляться з молодою парою, викладачем біології Ніком і його дружиною Хані, які потрапляють у павутиння Джорджа й Марти, і розуміють, що їхній власний шлюб перебуває під загрозою…


Тривалість: 02:10:59
Якість: 1080
Відео:
кодек:
розмір кадру: 1906х1080
бітрейт: ~14,9 мб/с

Аудіо # 1:
мова: українська
переклад: двоголосий закадровий
кодек: 2.0
бітрейт: 192 кб/с
Інформація про озвучення
Ролі озвучили: Остап Ступка і Ольга Радчук
Аудіо # 2:
мова: англійська
переклад: оригінал
кодек: 2.0
бітрейт: 1509 кб/с

Субтитри:
мова: англійська
тип: програмні (м'які)
формат: *.srt
Info
Код:
General
Unique ID                   : 71094449890471216179257618595681704800 (0x357C4B018C70830B02444D395C109B60)
Complete name               : D:\Who's Afraid of Virginia Woolf (1966) [Ukr,Eng] 1080p [Hurtom].
Format                      :
Format version              : Version 4
File size                   : 15.2 GiB
Duration                    : 2 h 10 min
Overall bit rate            : 16.6 Mb/s
Movie name                  : Who's Afraid of Virginia Woolf.(1966)..1080p
Encoded date                : UTC 2020-05-01 09:30:34
Writing application         : v45.0.0 ('Heaven in Pennies') 64-bit
Writing library             : libebml v1.3.10 + v1.5.2

Video
ID                          : 1
Format                      : AVC
Format/Info                 : Advanced Video Codec
Format profile              : [email protected]
Format settings             : CABAC / 4 Ref Frames
Format settings, CABAC      : Yes
Format settings, Reference  : 4 frames
Codec ID                    : V_MPEG4/ISO/AVC
Duration                    : 2 h 10 min
Bit rate                    : 14.9 Mb/s
Width                       : 1 906 pixels
Height                      : 1 080 pixels
Display aspect ratio        : 16:9
Frame rate mode             : Constant
Frame rate                  : 23.976 (24000/1001) FPS
Color space                 : YUV
Chroma subsampling          : 4:2:0
Bit depth                   : 8 bits
Scan type                   : Progressive
Bits/(Pixel*Frame)          : 0.302
Stream size                 : 13.6 GiB (90%)
Title                       : Who's Afraid of Virginia Woolf (1966)
Writing library             : core 148 r2762 90a61ec
Encoding settings           : cabac=1 / ref=4 / deblock=1:-3:-3 / analyse=0x3:0x133 / me=umh / subme=9 / psy=1 / psy_rd=1.00:0.00 / mixed_ref=1 / me_range=16 / chroma_me=1 / trellis=2 / 8x8dct=1 / cqm=0 / deadzone=21,11 / fast_pskip=1 / chroma_qp_offset=-2 / threads=18 / lookahead_threads=1 / sliced_threads=0 / nr=0 / decimate=1 / interlaced=0 / bluray_compat=0 / constrained_intra=0 / bframes=3 / b_pyramid=2 / b_adapt=2 / b_bias=0 / direct=3 / weightb=1 / open_gop=0 / weightp=2 / keyint=250 / keyint_min=23 / scenecut=40 / intra_refresh=0 / rc_lookahead=60 / rc=crf / mbtree=1 / crf=17.0 / qcomp=0.60 / qpmin=0 / qpmax=69 / qpstep=4 / ip_ratio=1.40 / aq=1:0.70
Language                    : English
Default                     : Yes
Forced                      : No

Audio #1
ID                          : 2
Format                      : AC-3
Format/Info                 : Audio Coding 3
Commercial name             : Dolby Digital
Codec ID                    : A_AC3
Duration                    : 2 h 10 min
Bit rate mode               : Constant
Bit rate                    : 192 kb/s
Channel(s)                  : 2 channels
Channel layout              : L R
Sampling rate               : 48.0 kHz
Frame rate                  : 31.250 FPS (1536 SPF)
Bit depth                   : 16 bits
Compression mode            : Lossy
Stream size                 : 180 MiB (1%)
Title                       : Двоголосий закадровий, "Інтер"
Language                    : Ukrainian
Service kind                : Complete Main
Default                     : Yes
Forced                      : Yes

Audio #2
ID                          : 3
Format                      :
Format/Info                 : Digital Theater Systems
Codec ID                    : A_DTS
Duration                    : 2 h 10 min
Bit rate mode               : Constant
Bit rate                    : 1 509 kb/s
Channel(s)                  : 2 channels
Channel layout              : L R
Sampling rate               : 48.0 kHz
Frame rate                  : 93.750 FPS (512 SPF)
Bit depth                   : 24 bits
Compression mode            : Lossy
Stream size                 : 1.38 GiB (9%)
Title                       : Оригінал
Language                    : English
Default                     : No
Forced                      : No

Text
ID                          : 4
Format                      : UTF-8
Codec ID                    : S_TEXT/UTF8
Codec ID/Info               : UTF-8 Plain Text
Duration                    : 2 h 10 min
Bit rate                    : 84 b/s
Count of elements           : 2250
Stream size                 : 80.7 KiB (0%)
Language                    : English
Default                     : No
Forced                      : No

Menu
00:00:00.000                : en:00:00:00.000
00:03:54.151                : en:00:03:54.151
00:07:59.688                : en:00:07:59.688
00:14:02.550                : en:00:14:02.550
00:20:39.280                : en:00:20:39.280
00:25:50.632                : en:00:25:50.632
00:30:01.341                : en:00:30:01.341
00:35:23.663                : en:00:35:23.663
00:38:32.685                : en:00:38:32.685
00:45:25.765                : en:00:45:25.765
00:50:33.989                : en:00:50:33.989
00:57:09.468                : en:00:57:09.468
01:05:16.955                : en:01:05:16.955
01:08:56.841                : en:01:08:56.841
01:14:37.390                : en:01:14:37.390
01:20:24.737                : en:01:20:24.737
01:26:16.880                : en:01:26:16.880
01:29:26.403                : en:01:29:26.403
01:34:02.512                : en:01:34:02.512
01:42:05.870                : en:01:42:05.870
01:48:17.533                : en:01:48:17.533
01:51:31.560                : en:01:51:31.560
01:57:20.408                : en:01:57:20.408
02:03:32.989                : en:02:03:32.989
02:05:44.245                : en:02:05:44.245
02:09:17.833                : en:02:09:17.833


Джерело:
Зведення звуку: taraskill1, Romario_O
Особиста оцінка: 9 - давно не бачив настільки якісне кіно



Срібний реліз (на рейтинг впливає 50% завантаженого)
 Трекер:    Зареєстрований   

Завантажити / скачати фільм українською



відео для новачків



 Зареєстрований:   2020-05-01 12:57
 Розмір:   15.19 GB 
 Оцінка фільму:   10/10 (Голосів: 4)
   
Ваш часовий пояс: GMT + 2 Години

Нова тема   Відповісти