Листковий пиріг / Layer Cake (2004) Remux 1080p Ukr/Eng | Sub Eng

Нові коментарі

Нова тема   Відповісти
Автор Повідомлення
Anonymous 







2020-05-01 00:31  
Листковий пиріг / Layer Cake (2004) Remux 1080p Ukr/Eng | Sub Eng

Листковий пиріг / Layer Cake (2004) Remux 1080p Ukr/Eng | Sub Eng

Жанр: трилер, драма, кримінальний, нео-нуар
Країна: Велика Британія



Кінокомпанія: Sony Pictures Classics, Marv Films
Режисер: Меттью Вон / Matthew Vaughn
Актори: Деніел Крейг / Daniel Craig, Том Гарді / Tom Hardy, Сієнна Міллер, Колм Міні, Кеннет Кренем, Джордж Харріс, Джемі Формен, Берн Горман, Темер Хассан, Брінлей Грін, Марсель Юрес та інші.

Сюжет:
Торгувати кокаїном - не квіточки розводити. Бізнес нервовий, що загрожує ранньою смертністю. Тому наркодилер на прізвисько Чотири Ікси, заробивши достатньо неправедних грошей, вирішує більше не спокушати долю і піти на спокій. Однак перед цим йому, як водиться, доведеться надати своєму босу останню послугу: розшукати зниклу доньку його старого приятеля.
Здається, нікчемна справа для знавця лондонського андеграунду?! Якби бідолаха знав, яким божевільним беззаконням і низкою небезпечних непорозумінь обернеться це завдання, в якому «випадково» опинилася замішана партія екстазі на два мільйони, то вийшов би у відставку місяцем раніше! А краще - двома! ...


Тривалість: 01:45:35
Якість: Blu-Ray Remux 1080p

Відео:
кодек: MPEG-2
розмір кадру: 1920x1080
бітрейт: 26583 кб/с

Аудіо # 1:
мова: українська
переклад: багатоголосий закадровий
кодек: 5.1
бітрейт: 448 кб/с

Аудіо # 2:
мова: англійська
переклад: оригінал
кодек: 5.1
бітрейт: 448 кб/с

Аудіо # 3:
мова: англійська
переклад: оригінал
кодек: -HD Master 5.1
бітрейт: 2192 кб/с

Аудіо # 4:
мова: англійська
переклад: коментарі
кодек: 2.0
бітрейт: 192 кб/с

Субтитри # 1-3:
мова: англійська
тип: пререндерні
формат: *.pgs
Info
General
Complete name : Layer Cake (2004) Blu-Ray Remux 1080p [Ukr_Eng].
Format :
Format version : Version 4
File size : 22.1 GiB
Duration : 1 h 45 min
Overall bit rate mode : Variable
Overall bit rate : 29.9 Mb/s
Movie name : Листковий пиріг / Layer Cake (2004)
Encoded date : UTC 2020-04-30 21:08:21
Writing application : v30.1.0 ('Forever And More') 64-bit
Writing library : libebml v1.3.6 + v1.4.9
Cover : Yes
Attachments : cover.jpg

Video
ID : 1
Format : MPEG Video
Format version : Version 2
Format profile : [email protected]
Format settings : CustomMatrix / BVOP
Format settings, BVOP : Yes
Format settings, Matrix : Custom
Format settings, GOP : M=3, N=12
Codec ID : V_MPEG2
Codec ID/Info : MPEG 1 or 2 Video
Duration : 1 h 45 min
Bit rate mode : Variable
Bit rate : 26.6 Mb/s
Maximum bit rate : 34.0 Mb/s
Width : 1 920 pixels
Height : 1 080 pixels
Display aspect ratio : 16:9
Frame rate mode : Constant
Frame rate : 23.976 (24000/1001) FPS
Color space : YUV
Chroma subsampling : 4:2:0
Bit depth : 8 bits
Scan type : Progressive
Compression mode : Lossy
Bits/(Pixel*Frame) : 0.535
Time code of first frame : 00:59:46:13
Time code source : Group of pictures header
GOP, Open/Closed : Open
GOP, Open/Closed of first frame : Closed
Stream size : 19.6 GiB (89%)
Default : Yes
Forced : No

Audio #1
ID : 2
Format : AC-3
Format/Info : Audio Coding 3
Commercial name : Dolby Digital
Codec ID : A_AC3
Duration : 1 h 45 min
Bit rate mode : Constant
Bit rate : 448 kb/s
Channel(s) : 6 channels
Channel layout : L R C LFE Ls Rs
Sampling rate : 48.0 kHz
Frame rate : 31.250 FPS (1536 SPF)
Bit depth : 16 bits
Compression mode : Lossy
Stream size : 338 MiB (1%)
Title : , 6 ch, 448 Кбт/с | ТакТребаПродакшн
Language : Ukrainian
Service kind : Complete Main
Default : Yes
Forced : No

Audio #2
ID : 3
Format : AC-3
Format/Info : Audio Coding 3
Commercial name : Dolby Digital
Codec ID : A_AC3
Duration : 1 h 45 min
Bit rate mode : Constant
Bit rate : 448 kb/s
Channel(s) : 6 channels
Channel layout : L R C LFE Ls Rs
Sampling rate : 48.0 kHz
Frame rate : 31.250 FPS (1536 SPF)
Bit depth : 16 bits
Compression mode : Lossy
Stream size : 338 MiB (1%)
Title : , 6 ch, 448 Кбт/с
Language : English
Service kind : Complete Main
Default : No
Forced : No

Audio #3
ID : 4
Format : XLL
Format/Info : Digital Theater Systems
Commercial name : -HD Master Audio
Codec ID : A_DTS
Duration : 1 h 45 min
Bit rate mode : Variable
Bit rate : 2 192 kb/s
Channel(s) : 6 channels
Channel layout : C L R Ls Rs LFE
Sampling rate : 48.0 kHz
Frame rate : 93.750 FPS (512 SPF)
Bit depth : 16 bits
Compression mode : Lossless
Stream size : 1.62 GiB (7%)
Title : -HD MA, 6 ch, 2192 Кбт/с
Language : English
Default : No
Forced : No

Audio #4
ID : 5
Format : AC-3
Format/Info : Audio Coding 3
Commercial name : Dolby Digital
Codec ID : A_AC3
Duration : 1 h 45 min
Bit rate mode : Constant
Bit rate : 192 kb/s
Channel(s) : 2 channels
Channel layout : L R
Sampling rate : 48.0 kHz
Frame rate : 31.250 FPS (1536 SPF)
Bit depth : 16 bits
Compression mode : Lossy
Stream size : 145 MiB (1%)
Title : , 2 ch, 192 Кбт/с | коментарі
Language : English
Service kind : Complete Main
Default : No
Forced : No

Text #1
ID : 6
Format : PGS
Muxing mode : zlib
Codec ID : S_HDMV/PGS
Codec ID/Info : Picture based subtitle format used on BDs/HD-DVDs
Duration : 1 h 40 min
Bit rate : 59.0 kb/s
Count of elements : 2210
Stream size : 42.3 MiB (0%)
Language : English
Default : No
Forced : No

Text #2
ID : 7
Format : PGS
Muxing mode : zlib
Codec ID : S_HDMV/PGS
Codec ID/Info : Picture based subtitle format used on BDs/HD-DVDs
Duration : 1 h 44 min
Bit rate : 44.2 kb/s
Count of elements : 2618
Stream size : 33.1 MiB (0%)
Language : English
Default : No
Forced : No

Text #3
ID : 8
Format : PGS
Muxing mode : zlib
Codec ID : S_HDMV/PGS
Codec ID/Info : Picture based subtitle format used on BDs/HD-DVDs
Duration : 1 h 41 min
Bit rate : 105 kb/s
Count of elements : 3542
Stream size : 76.0 MiB (0%)
Language : English
Default : No
Forced : No
Скріншоти


Джерело: &
Особиста оцінка: 8 - мені сподобалося


Золотий реліз (завантажене не впливає на рейтинг)
 Трекер:    Зареєстрований   

Завантажити / скачати фільм українською



відео для новачків



 Зареєстрований:   2020-05-01 13:53
 Розмір:   22.07 GB 
 Оцінка фільму:   9.3/10 (Голосів: 3)
 ЗАЛИШАЙТЕСЬ ЯКОМОГА ДОВШЕ НА РОЗДАЧІ! ЗАВАНТАЖИВ САМ - ДАЙ ЗАВАНТАЖИТИ ІНШИМ!
   
Інші релізи
roseintherain 
Поважний учасник


З нами з: 06.02.16
Востаннє: 25.09.20
Повідомлень: 186

2020-05-01 01:34  
Ну "Листковий пиріг" це смішно трохи звучить. У нас layer cake це "перекладанець" або тоді шаровий пиріг
Bohonek 
Свій


З нами з: 21.12.12
Востаннє: 24.09.20
Повідомлень: 128

2020-05-01 11:28  
Ліворуч на постері брат Трампа?)
bot 
робот


З нами з: 30.09.07
Востаннє: 26.05.05
Повідомлень: 25603

2020-05-01 13:53  
Тему перенесено з Анонси релізів до форуму Фільми в HD


antik_2008

-FIRE- 
Частий відвідувач


З нами з: 02.08.11
Востаннє: 25.09.20
Повідомлень: 30

2020-05-01 14:56  
roseintherain написано:
шаровий пиріг

layer = шар, прошарок (інколи - пласт) українською.

І-р 
Свій


З нами з: 21.07.16
Востаннє: 25.09.20
Повідомлень: 103

2020-05-01 16:22  
roseintherain написано:
"перекладанець"

або "перемазанець" Happy

Anonymous 







2020-05-05 23:32  
Крутий фільм!
Ваш часовий пояс: GMT + 2 Години

Нова тема   Відповісти