Свинка Пеппа / Peppa Pig (Сезон 1) (2004) 1080p Ukr/Eng

Нові коментарі

Нова тема   Відповісти
Автор Повідомлення
sergiyko.5 
Забанено
Забанено


З нами з: 25.02.16
Востаннє: 29.10.20
Повідомлень: 3648

2020-04-30 18:56  
Всі одноіменні релізи на трекері записані sergiyko`m

Свинка Пеппа / Peppa Pig (Сезон 1) (2004) 1080p Ukr/Eng


Свинка Пеппа / Peppa Pig (Сезон 1) (2004) 1080p Ukr/Eng

Жанр: пригоди, комедія
Країна: Велика Британія
Кінокомпанія: Astley Baker Davies Ltd., Contender Group, Entertainment
Режисер: Естлі Бейкер Девіс
Актори: Джон Спаркс, Гарлі Берд, Олівер Мей, Девід Рінтул, Сара Енн Кеннеді, Морвенна Бенкс, Річард Райдінгс

Сюжет:
Персонажі мультфільму наділені якостями як звичайних людей, так і тварин. Вони носять одяг, живуть у будинках, ходять на роботу, у театр, їздять на автомобілі, тощо. Діти відзначають дні народження, катаються на ковзанах, граються у парку — одним словом, займаються тим, чим звичайні діти. З іншого боку, персонажам притаманні вчинки тварин — свинки хрюкають та полюбляють поніжитись у болоті, овечки бекають а кішки нявкають...




Тривалість: 1 серія: 05:00 (цілком серій: 52 з 52)
Якість:

Відео: кодек: розмір кадру: 1920 х 1080 бітрейт: 5100 кб/с
Аудіо 1: мова: українська переклад: професійний дубльований кодек: 2.0 бітрейт: 192 кб/с
Озвучення:
Аудіо 2: мова: англійська переклад: оригінал кодек: 2.0 бітрейт: 160 кб/с
Перелік серій
01.Калюжі.Muddy Puddles
02.Динозавр загубився.Mr Dinosaur is Lost
03.Найліпші подруги.Best Friend
04.Папужка Поллі.Polly Parrot
05.Гра у хованки.Hide & Seek
06.Дитсадок.The Playgroup
07.Мама свинка працює.Mummy Pig at Work
08.Гра в собачку.Piggy in the Middle
09.Тато загубив окуляри.Daddy Loses his Glasses
10.Садівництво.Gardening
11.Гикавка.Hiccups
12.Велосипеди.Bicycles
13.Таємниця.Secrets
14.Повітряний змій.Flying a Kite
15.Пікнік.Picnic
16.Музичні інструменти.Musical Instruments
17.Жабки,черв'яки та метелики.Frogs & Worms & Butterflies
18.Перевдягання.Dressing Up
19.Нові черевички.New Shoes
20.Шкільний ярмарок.The School Fete
21.День народження мами свинки.Mummy Pig's Birthday
22.Зубна фея.The Tooth Fairy
23.Нова машина.The New Car
24.Пошук скарбів.Treasure Hunt
25.Мені недобре.Not Very Well
26.Сніг.Snow
27.Замок вітрів.Windy castle
28.Моя кузина Хлоя.My Cousin Chloe
29.Млинці.Pancakes
30.Без батьків.Babysitting
31.Уроки балету.Ballet Lessons
32.Гроза.Thunderstrom
33.Миємо машину.Cleaning the Car
34.Обiд.Lunch
35.Відпочинок на природі.Camping
36.Спляча принцеса.The Sleepy Princess
37.Хатинка на дереві.The Tree House
38.Маскарад.Fancy Dress Party
39.Музей.The Museum
40.Спекотний день.Very Hot Day
41.Ляльковий театр Хлої.Chloe's Puppet Show
42.Тато худне.Daddy Gets Fit
43.Прибирання.Tidying Up
44.На майданчику.The Playground
45.Як тато вішав фотографію.Daddy Puts up a Picture
46.На пляжі.At the Beach
47.Пан тонконіг.Mister Skinnylegs
48.Дідусів корабель.Grandpa Pig's Boat
49.У магазині.Shopping
50.Мій день народження.My Birthday Party
51.Татова відеокамера.Daddy's Movie Camera
52.Вистава.School Play
Про файл:
General
Unique ID : 22929501163545204281603863168701197758 (0x11400FB0B4CCAED156C4F1FF1CA46DBE)
Complete name : D:\Documents\Torrents\MULTSER_2\Peppa Pig 1080p \Peppa Pig S01 1080p \S01E01.Muddy Puddles.1080p..sergiyko.
Format :
Format version : Version 4
File size : 197 MiB
Duration : 5 min 0 s
Overall bit rate : 5 505 kb/s
Movie name : Peppa Pig S01 1080p by sergiyko
Encoded date : UTC 2020-04-30 15:52:03
Writing application : v44.0.0 ('Domino') 64-bit
Writing library : libebml v1.3.10 + v1.5.2

Video
ID : 1
Format : AVC
Format/Info : Advanced Video Codec
Format profile : [email protected]
Format settings : CABAC / 4 Ref Frames
Format settings, CABAC : Yes
Format settings, Reference : 4 frames
Codec ID : V_MPEG4/ISO/AVC
Duration : 5 min 0 s
Bit rate : 5 120 kb/s
Width : 1 920 pixels
Height : 1 080 pixels
Display aspect ratio : 16:9
Frame rate mode : Constant
Frame rate : 25.000 FPS
Color space : YUV
Chroma subsampling : 4:2:0
Bit depth : 8 bits
Scan type : Progressive
Bits/(Pixel*Frame) : 0.099
Stream size : 181 MiB (92%)
Title : S01E01.Muddy Puddles
Writing library : core 148
Encoding settings : cabac=1 / ref=3 / deblock=1:0:0 / analyse=0x3:0x113 / me=hex / subme=7 / psy=1 / psy_rd=1.00:0.00 / mixed_ref=1 / me_range=16 / chroma_me=1 / trellis=1 / 8x8dct=1 / cqm=0 / deadzone=21,11 / fast_pskip=1 / chroma_qp_offset=-2 / threads=34 / lookahead_threads=5 / sliced_threads=0 / nr=0 / decimate=1 / interlaced=0 / bluray_compat=0 / constrained_intra=0 / bframes=6 / b_pyramid=2 / b_adapt=1 / b_bias=0 / direct=1 / weightb=1 / open_gop=0 / weightp=2 / keyint=50 / keyint_min=26 / scenecut=0 / intra_refresh=0 / rc_lookahead=40 / rc=2pass / mbtree=1 / bitrate=5120 / ratetol=1.0 / qcomp=0.60 / qpmin=0 / qpmax=69 / qpstep=4 / cplxblur=20.0 / qblur=0.5 / vbv_maxrate=7680 / vbv_bufsize=20480 / nal_hrd=none / filler=0 / ip_ratio=1.40 / aq=1:1.00
Language : English
Default : Yes
Forced : No

Audio #1
ID : 2
Format : AC-3
Format/Info : Audio Coding 3
Commercial name : Dolby Digital
Codec ID : A_AC3
Duration : 5 min 0 s
Bit rate mode : Constant
Bit rate : 192 kb/s
Channel(s) : 2 channels
Channel layout : L R
Sampling rate : 48.0 kHz
Frame rate : 31.250 FPS (1536 SPF)
Compression mode : Lossy
Delay relative to video : -43 ms
Stream size : 6.87 MiB (3%)
Title : DUB | ПлюсПлюс
Language : Ukrainian
Service kind : Complete Main
Default : Yes
Forced : Yes

Audio #2
ID : 3
Format : LC
Format/Info : Advanced Audio Codec Low Complexity
Codec ID : A_AAC-2
Duration : 5 min 0 s
Bit rate : 256 kb/s
Channel(s) : 2 channels
Channel layout : L R
Sampling rate : 48.0 kHz
Frame rate : 46.875 FPS (1024 SPF)
Compression mode : Lossy
Delay relative to video : -43 ms
Stream size : 9.16 MiB (5%)
Title : Original
Language : English
Default : No
Forced : No
Скріншоти:


Автор релізу: sergiyko


Срібний реліз (на рейтинг впливає 50% завантаженого)
 Трекер:    Зареєстрований   

Завантажити / скачати мультфільм українською



відео для новачків



 Зареєстрований:   2020-05-02 17:40
 Розмір:   10.06 GB 
 Оцінка мультсеріалу:   9.6/10 (Голосів: 5)
   
sergiyko.5 
Забанено
Забанено


З нами з: 25.02.16
Востаннє: 29.10.20
Повідомлень: 3648

2020-05-02 17:46  
Додав серії до повного першого сезону. В планах 2 та 3 сезони. Та нажаль проблеми з очима не дозволяють багато часу працювати за компом. Прийдеться почекати.
adius 
Новенький


З нами з: 06.07.12
Востаннє: 19.04.21
Повідомлень: 2

2020-05-10 23:57  
Дякую за чудовий реліз!
Ваш часовий пояс: GMT + 2 Години

Нова тема   Відповісти