Хто є хто / Поліцейський чи негідник / Flic ou voyou (1979) Remux 1080p [GER Transfer] 3xUkr/Fra | Sub Eng

Нові коментарі

Нова тема   Відповісти
Останній раз роздавалося MakRA (2020-09-28)
Автор Повідомлення
MakRA 
VIP


З нами з: 11.11.18
Востаннє: 28.09.20
Повідомлень: 1120

2020-04-30 11:29  
Хто є хто / Поліцейський чи негідник / Flic ou voyou (1979) Remux 1080p [GER Transfer] 3xUkr/Fra | Sub Eng

Хто є хто / Поліцейський чи негідник / Flic ou voyou (1979) Remux 1080p [GER Transfer] 3xUkr/Fra | Sub Eng

Українізовані обкладинки та постери:



Альтернативні обкладинки та постери:




Жанр: екшн, комедія, кримінальний
Країна: Франція



Кінокомпанія: Cerito Films, Gaumont International
Режисер: Жорж Лотнер [Georges Lautner]
Актори: Жан-Поль Бельмондо (Jean-Paul Belmondo), Мішель Бон [Michel Beaune], Жорж Жере [Georges Géret], Жан-Франсуа Бальме [Jean-François Balmer], Клод Бросе [Claude Brosset], Жюлі Жезекель [Julie Jézéquel]

Сюжет:
Після того, як в Ніцці при загадкових обставинах був убитий поліцейський комісар, туди приїжджає з Парижа інспектор, з відділу по нагляду за поліцією, щоб розкрити корупцію, що панує серед поліції міста.
Але методи його роботи примушують дивуватися, кого він більше нагадує, невимушений і спокусливий, вправно діючий кулаками, але не чужий серцевим поривам.


Тривалість: 01:47:05
Якість: Remux 1080p [GER Transfer]
Відео:
кодек:
розмір кадру: 1920 х 1080
бітрейт: 22 Mб/с

Аудіо # 1:
мова: українська
переклад: багатоголосий закадровий
кодек: 2.0
бітрейт: 224 кб/с

Аудіо # 2:
мова: українська
переклад: багатоголосий закадровий
кодек: 2.0
бітрейт: 192 кб/с

Аудіо # 3:
мова: українська
переклад: багатоголосий закадровий
кодек: 2.0
бітрейт: 192 кб/с

Аудіо # 4:
мова: французька
переклад: оригінал
кодек: -HD MA 2.0
бітрейт: 1558 кб/с

Аудіо # 5:
мова: французька
переклад: оригінал
кодек: 2.0
бітрейт: 224 кб/с

Субтитри: (Full)
мова: англійська
тип: програмні (м'які)
формат: *.srt

Збережено оригінальні розділи, як на Blu-ray.
Info
General
Unique ID : 67565934395774279103349824015791602773 (0x32D4B9C2B67E4000212ABF5AFAC4BC55)
Complete name : E:\+Фільмографії-Жан-Поль Бельмондо [Jean-Paul Belmondo]\Flic ou voyou (1979) Remux 1080p [GER Transfer] 3xUkrFra Sub Eng [Hurtom].
Format :
Format version : Version 4
File size : 18.3 GiB
Duration : 1 h 47 min
Overall bit rate mode : Variable
Overall bit rate : 24.4 Mb/s
Movie name : Хто є хто / Поліцейський чи негідник / Flic ou voyou (1979) Remux 1080p [GER Transfer] 3xUkr/Fra | Sub Eng [Hurtom]
Encoded date : UTC 2020-04-30 20:24:01
Writing application : v44.0.0 ('Domino') 64-bit
Writing library : libebml v1.3.10 + v1.5.2
Cover : Yes
Attachments : cover.jpg

Video
ID : 1
Format : AVC
Format/Info : Advanced Video Codec
Format profile : [email protected]
Format settings : CABAC / 4 Ref Frames
Format settings, CABAC : Yes
Format settings, Reference fra : 4 frames
Format settings, GOP : M=3, N=24
Codec ID : V_MPEG4/ISO/AVC
Duration : 1 h 47 min
Bit rate mode : Variable
Bit rate : 22.0 Mb/s
Maximum bit rate : 35.0 Mb/s
Width : 1 920 pixels
Height : 1 080 pixels
Display aspect ratio : 16:9
Frame rate mode : Constant
Frame rate : 23.976 (24000/1001) FPS
Standard : NTSC
Color space : YUV
Chroma subsampling : 4:2:0
Bit depth : 8 bits
Scan type : Progressive
Bits/(Pixel*Frame) : 0.442
Stream size : 16.5 GiB (90%)
Title : Flic ou voyou (1979) Remux 1080p [GER Transfer] 3xUkr/Fra | Sub Eng [Hurtom]
Language : Ukrainian
Default : Yes
Forced : Yes
Color range : Limited
Color primaries : BT.709
Transfer characteristics : BT.709
Matrix coefficients : BT.709

Audio #1
ID : 2
Format : AC-3
Format/Info : Audio Coding 3
Commercial name : Dolby Digital
Codec ID : A_AC3
Duration : 1 h 47 min
Bit rate mode : Constant
Bit rate : 224 kb/s
Channel(s) : 2 channels
Channel layout : L R
Sampling rate : 48.0 kHz
Frame rate : 31.250 FPS (1536 SPF)
Compression mode : Lossy
Stream size : 172 MiB (1%)
Title : MVO [1+1] 2.0
Language : Ukrainian
Service kind : Complete Main
Default : Yes
Forced : Yes

Audio #2
ID : 3
Format : AC-3
Format/Info : Audio Coding 3
Commercial name : Dolby Digital
Codec ID : A_AC3
Duration : 1 h 47 min
Bit rate mode : Constant
Bit rate : 192 kb/s
Channel(s) : 2 channels
Channel layout : L R
Sampling rate : 48.0 kHz
Frame rate : 31.250 FPS (1536 SPF)
Compression mode : Lossy
Stream size : 147 MiB (1%)
Title : MVO [ІНТЕР] 2.0
Language : Ukrainian
Service kind : Complete Main
Default : No
Forced : No

Audio #3
ID : 4
Format : AC-3
Format/Info : Audio Coding 3
Commercial name : Dolby Digital
Codec ID : A_AC3
Duration : 1 h 47 min
Bit rate mode : Constant
Bit rate : 192 kb/s
Channel(s) : 2 channels
Channel layout : L R
Sampling rate : 48.0 kHz
Frame rate : 31.250 FPS (1536 SPF)
Compression mode : Lossy
Stream size : 147 MiB (1%)
Title : MVO [ENTER] 2.0
Language : Ukrainian
Service kind : Complete Main
Default : No
Forced : Yes

Audio #4
ID : 5
Format : XLL
Format/Info : Digital Theater Systems
Commercial name : -HD Master Audio
Codec ID : A_DTS
Duration : 1 h 47 min
Bit rate mode : Variable
Bit rate : 1 562 kb/s
Channel(s) : 2 channels
Channel layout : L R
Sampling rate : 48.0 kHz
Frame rate : 93.750 FPS (512 SPF)
Bit depth : 16 bits
Compression mode : Lossless
Stream size : 1.17 GiB (6%)
Title : Original -HD MA 2.0
Language : French
Default : No
Forced : No

Audio #5
ID : 6
Format : AC-3
Format/Info : Audio Coding 3
Commercial name : Dolby Digital
Codec ID : A_AC3
Duration : 1 h 47 min
Bit rate mode : Constant
Bit rate : 224 kb/s
Channel(s) : 2 channels
Channel layout : L R
Sampling rate : 48.0 kHz
Frame rate : 31.250 FPS (1536 SPF)
Compression mode : Lossy
Stream size : 172 MiB (1%)
Title : Original 2.0
Language : French
Service kind : Complete Main
Default : No
Forced : No

Text
ID : 7
Format : UTF-8
Codec ID : S_TEXT/UTF8
Codec ID/Info : UTF-8 Plain Text
Duration : 1 h 42 min
Bit rate : 45 b/s
Count of elements : 1132
Stream size : 34.4 KiB (0%)
Title : Eng (Full)
Language : English
Default : No
Forced : No

Menu
00:00:00.000 : en:00:00:00.000
00:04:20.927 : en:00:04:20.927
00:16:47.965 : en:00:16:47.965
00:22:11.747 : en:00:22:11.747
00:32:36.454 : en:00:32:36.454
00:44:11.482 : en:00:44:11.482
00:51:07.731 : en:00:51:07.731
01:01:13.086 : en:01:01:13.086
01:11:17.482 : en:01:11:17.482
01:20:08.554 : en:01:20:08.554
01:29:52.095 : en:01:29:52.095
01:37:46.778 : en:01:37:46.778
Скріншоти
Джерело: &
Висловлюю подяки: п. РОМЕО за запис доріжки з Ентер -Фільм, п. Arsenfpu за синхронізацію доріжки з Ентер -Фільм, п. Hentaihunter за запис доріжку з 1+1, п. rooster за синхронізацію доріжку з 1+1, п. xslim за запис доріжки з Інтер, п. ilitbr за постер часів УРСР
Особиста оцінка: 10 - без зайвих вагань рекомендую всім!



Золотий реліз (завантажене не впливає на рейтинг)
 Трекер:    Зареєстрований   

Завантажити / скачати фільм українською



відео для новачків



 Зареєстрований:   2020-05-01 00:19
 Розмір:   18.25 GB 
 Оцінка фільму:   10/10 (Голосів: 4)
   
bot 
робот


З нами з: 30.09.07
Востаннє: 26.05.05
Повідомлень: 25641

2020-04-30 11:29  
Тему перенесено з Фільми в HD до форуму Анонси релізів


MakRA

bot 
робот


З нами з: 30.09.07
Востаннє: 26.05.05
Повідомлень: 25641

2020-05-01 00:19  
Тему перенесено з Анонси релізів до форуму Фільми в HD


MakRA

Ваш часовий пояс: GMT + 2 Години

Нова тема   Відповісти