Якось в Америці [Розширена версія] / Once Upon a Time in America [Extended Edition] (1984) 1080p Ukr/Eng | Sub Eng

Нові коментарі

Нова тема   Відповісти
Автор Повідомлення
PatataFrita 
Свій


З нами з: 05.04.20
Востаннє: 08.09.20
Повідомлень: 83

2020-04-30 10:55  
Якось в Америці [Розширена версія] / Once Upon a Time in America [Extended Edition] (1984) 1080p Ukr/Eng | Sub Eng

Якось в Америці [Розширена версія] / Once Upon a Time in America [Extended Edition] (1984) 1080p Ukr/Eng | Sub Eng


Жанр: кримінал, драма, історія
Країна: Італія, США



Кінокомпанія: Ladd Company, The, Embassy International Pictures, PSO International
Режисер: Серджіо Леоне / Sergio Leone
Актори: Роберт Де Ніро (Robert De Niro), Джеймс Вудс (James Woods), Елібазет МакҐоверн (Elizabeth McGovern), Джо Пеші (Joe Pesci), Берт Янґ (Burt Young), Тусдей Велд (Tuesday Weld), Тріт Вільямс (Treat Williams), Денні Айєлло (Danny Aiello), Вільям Форсайт (William Forsythe), Джеймс Руссо (James Russo), Дженніфер Коннеллі (Jennifer Connelly)

Сюжет:
У бурхливі двадцяті роки, коли Америка веселилася під звуки джазу і кожен волоцюга мріяв стати мільйонером, в нетрях Нью-Йорка зустрілися декілька відчайдушних хлопців. Прибираючи з дороги конкурентів, безжально караючи зрадників і нахабно провертаючи хитромудрі афери, вони стали королями злочинного світу золотої ери "сухого закону". Вони присягнулися віддати життя один за одного, знаючи, що найголовніше для них - це дружба, борг і справедливість - не втопити в річках крові і бездонному океані грошей. Через багато років доля жорстоко обійшлася з легендарними гангстерами, змусивши їх виконати свою клятву. Це сталося якось в Америці.


Тривалість: 04:11:00
Якість: 1080p
Відео:
кодек:
розмір кадру: 1920x1040
бітрейт: 7957 кб/с

Аудіо # 1:
мова: українська
переклад: двоголосий закадровий
кодек: 5.1
бітрейт: 448 кб/с

Аудіо # 2:
мова: англійська
переклад: оригінал
кодек: 5.1
бітрейт: 448 кб/с

Джерело озвучення:


Субтитри: (форсовані - на розширені моменти) (переклад виконано з оригіналу)
мова: українська
тип: програмні (м'які)
формат: *.srt

Субтитри:
мова: англійська
тип: програмні (м'які)
формат: *.srt
Info
General
Unique ID : 120273620716538682179505131962752554776 (0x5A7BDB5500A4FC88A70175D35FBBD718)
Complete name : D:\Once.Upon.a.Time.in.America.[Extended.Edition].1984 1080p.Ukr[HURTOM].
Format :
Format version : Version 4
File size : 15.5 GiB
Duration : 4 h 11 min
Overall bit rate : 8 854 kb/s
Movie name : Once.Upon.a.Time.in.America.[Extended.Edition].1984 1080p.Ukr
Encoded date : UTC 2020-04-30 06:53:17
Writing application : v45.0.0 ('Heaven in Pennies') 32-bit
Writing library : libebml v1.3.10 + v1.5.2

Video
ID : 1
Format : AVC
Format/Info : Advanced Video Codec
Format profile : [email protected]
Format settings : CABAC / 4 Ref Frames
Format settings, CABAC : Yes
Format settings, Reference : 4 frames
Codec ID : V_MPEG4/ISO/AVC
Duration : 4 h 11 min
Bit rate : 7 957 kb/s
Width : 1 920 pixels
Height : 1 040 pixels
Display aspect ratio : 1.85:1
Frame rate mode : Constant
Frame rate : 24.000 FPS
Color space : YUV
Chroma subsampling : 4:2:0
Bit depth : 8 bits
Scan type : Progressive
Bits/(Pixel*Frame) : 0.166
Stream size : 13.9 GiB (90%)
Title : Release by AlexKa
Writing library : core 129 r2245 bc13772
Encoding settings : cabac=1 / ref=4 / deblock=1:0:0 / analyse=0x3:0x133 / me=umh / subme=10 / psy=1 / psy_rd=1.00:0.00 / mixed_ref=1 / me_range=32 / chroma_me=1 / trellis=2 / 8x8dct=1 / cqm=0 / deadzone=21,11 / fast_pskip=0 / chroma_qp_offset=-2 / threads=12 / lookahead_threads=2 / sliced_threads=0 / nr=0 / decimate=0 / interlaced=0 / bluray_compat=0 / constrained_intra=0 / bframes=5 / b_pyramid=2 / b_adapt=2 / b_bias=0 / direct=3 / weightb=1 / open_gop=0 / weightp=2 / keyint=240 / keyint_min=24 / scenecut=40 / intra_refresh=0 / rc=2pass / mbtree=0 / bitrate=7957 / ratetol=1.0 / qcomp=0.60 / qpmin=0 / qpmax=69 / qpstep=4 / cplxblur=20.0 / qblur=0.5 / ip_ratio=1.40 / pb_ratio=1.30 / aq=1:0.80
Language : English
Default : Yes
Forced : No

Audio #1
ID : 2
Format : AC-3
Format/Info : Audio Coding 3
Commercial name : Dolby Digital
Codec ID : A_AC3
Duration : 4 h 11 min
Bit rate mode : Constant
Bit rate : 448 kb/s
Channel(s) : 6 channels
Channel layout : L R C LFE Ls Rs
Sampling rate : 48.0 kHz
Frame rate : 31.250 FPS (1536 SPF)
Compression mode : Lossy
Stream size : 804 MiB (5%)
Language : Ukrainian
Service kind : Complete Main
Default : Yes
Forced : No

Audio #2
ID : 3
Format : AC-3
Format/Info : Audio Coding 3
Commercial name : Dolby Digital
Codec ID : A_AC3
Duration : 4 h 11 min
Bit rate mode : Constant
Bit rate : 448 kb/s
Channel(s) : 6 channels
Channel layout : L R C LFE Ls Rs
Sampling rate : 48.0 kHz
Frame rate : 31.250 FPS (1536 SPF)
Compression mode : Lossy
Stream size : 804 MiB (5%)
Title : Original
Language : English
Service kind : Complete Main
Default : No
Forced : No

Text #1
ID : 4
Format : UTF-8
Codec ID : S_TEXT/UTF8
Codec ID/Info : UTF-8 Plain Text
Duration : 2 h 32 min
Bit rate : 7 b/s
Count of elements : 142
Stream size : 8.85 KiB (0%)
Language : Ukrainian
Default : Yes
Forced : No

Text #2
ID : 5
Format : UTF-8
Codec ID : S_TEXT/UTF8
Codec ID/Info : UTF-8 Plain Text
Duration : 3 h 58 min
Bit rate : 31 b/s
Count of elements : 1645
Stream size : 54.3 KiB (0%)
Title : Eng
Language : English
Default : No
Forced : No

Menu
00:00:00.000 : :Chapter 01
00:03:28.916 : :Chapter 02
00:14:48.083 : :Chapter 03
00:24:36.000 : :Chapter 04
00:37:39.666 : :Chapter 05
00:45:50.166 : :Chapter 06
00:53:35.875 : :Chapter 07
01:04:46.875 : :Chapter 08
01:12:05.000 : :Chapter 09
01:22:31.582 : :Chapter 10
01:30:33.416 : :Chapter 11
01:38:18.875 : :Chapter 12
01:44:53.291 : :Chapter 13
01:52:24.875 : :Chapter 14
02:01:01.166 : :Chapter 15
02:08:37.625 : :Chapter 16
02:18:36.083 : :Chapter 17
02:27:45.875 : :Chapter 18
02:33:55.583 : :Chapter 19
02:42:24.665 : :Chapter 20
02:48:07.250 : :Chapter 21
02:55:59.333 : :Chapter 22
03:02:59.415 : :Chapter 23
03:08:52.415 : :Chapter 24
03:13:56.708 : :Chapter 25
03:22:56.208 : :Chapter 26
03:30:10.750 : :Chapter 27
03:40:32.625 : :Chapter 28
03:46:35.750 : :Chapter 29
03:54:51.333 : :Chapter 30
04:03:14.166 : :Chapter 31
04:06:44.750 : :Chapter 32
Скріншоти
За доріжку та форсовані укр. саби поодяка Demrandir

Джерело: &
Особиста оцінка: 10 - без зайвих вагань рекомендую всім!


Срібний реліз (на рейтинг впливає 50% завантаженого)
 Трекер:    Зареєстрований   

Завантажити / скачати фільм українською



відео для новачків



 Зареєстрований:   2020-04-30 10:55
 Розмір:   15.52 GB 
 Оцінка фільму:   9.9/10 (Голосів: 8)
   
omm 
Відео Гуртом - фільмокрай
Відео Гуртом - фільмокрай


З нами з: 12.06.12
Востаннє: 24.09.20
Повідомлень: 2422

2020-04-30 12:36  
Чудове атмосферне кіно.. Майже на рівні 1,2 частин "Хрещеного батька"
Ваш часовий пояс: GMT + 2 Години

Нова тема   Відповісти