Грімм (Сезон 2) / Grimm (Season 2) (2012-2013) 720p Ukr/Eng | sub Eng

Нові коментарі

Нова тема   Відповісти
Автор Повідомлення
Anonymous 







2020-04-30 08:28  
Грімм (Сезон 2) / Grimm (Season 2) (2012-2013) 720p Ukr/Eng | sub Eng

Грімм (Сезон 2) / Grimm (Season 2) (2012-2013) 720p Ukr/Eng | sub Eng


Жанр: кримінальний, фентезі, драма, жахи
Країна: США



Кінокомпанія: GK Productions, Hazy Mills Productions, Universal Television
Режисер: Стівен Карпентер (Stephen Carpenter), Девід Грінволт (David Greenwalt), Джим Коуф (Jim Kouf)
Актори: Дейв Ґвінтолі (David Giuntoli), Расселл Горнсбі (Russell Hornsby), Сайлас Вейр Мітчелл (Silas Weir Mitchell), Бітсі Таллоч (Elizabeth Tulloch) та інші

Сюжет:
Молодий детектив Нік Беркхардт є спадкоємцем роду Грімм - мисливців за нечистю, яка живе у світі людей. Всі нащадки Гриммів володіють ключовою здатністю - вони можуть бачити справжню сутність злих тварюк, під якою б личиною вони не ховалися. Соратником Ніка стає перевихований "Різник" - перевертень Едді Монро, що допомагає йому пізнавати таїнства древньої міфології.


Тривалість: 1 серія: ~43 хв. (цілком серій: 22)
Перелік серій
01) Bad Teeth
02) The Kiss
03) Bad Moon Rising
04) Quill
05) The Good Shepherd
06) Over My Dead Body
07) The Bottle Imp
08) The Other Side
09) La Llorona
10) The Hour of Death
11) To Protect and Serve Man
12) Season of the Hexenbiest
13) Face Off
14) Natural Born Wesen
15) Mr. Sandman
16) Nameless
17) One Angry Fuchsbau
18) Volcanalis
19) Endangered
20) Kiss of the Muse
21) The Waking Dead
22) Goodnight, Sweet Grimm
Якість:
Відео:
кодек:
розмір кадру: 1280 x 720
бітрейт: ~4000 кб/с

Аудіо # 1:
мова: українська
переклад: багатоголосий закадровий
кодек: 2.0
бітрейт: 192 кб/с

Аудіо # 2:
мова: англійська
переклад: оригінал
кодек: 5.1
бітрейт: 384 кб/с

Джерело озвучення:


Субтитри:
мова: англійська
тип: програмні (м'які)
формат: *.srt
Info
General
Unique ID : 177424366185915491968547181329590014902 (0x857AB0A1E20A44623FA22539B3F053B6)
Complete name : F:\Support\series\Grimm (Season 2) [, 720p, Ukr, Eng]\Grimm. s02e02. The Kiss.
Format :
Format version : Version 4
File size : 1.43 GiB
Duration : 43 min 17 s
Overall bit rate : 4 741 kb/s
Encoded date : UTC 2020-04-29 18:36:43
Writing application : v45.0.0 ('Heaven in Pennies') 64-bit
Writing library : libebml v1.3.10 + v1.5.2

Video
ID : 1
Format : AVC
Format/Info : Advanced Video Codec
Format profile : [email protected]
Format settings : 2 Ref Frames
Format settings, CABAC : No
Format settings, Reference : 2 frames
Codec ID : V_MPEG4/ISO/AVC
Duration : 43 min 17 s
Bit rate : 4 163 kb/s
Width : 1 280 pixels
Height : 720 pixels
Display aspect ratio : 16:9
Frame rate mode : Constant
Frame rate : 23.976 (23976/1000) FPS
Color space : YUV
Chroma subsampling : 4:2:0
Bit depth : 8 bits
Scan type : Progressive
Bits/(Pixel*Frame) : 0.188
Stream size : 1.26 GiB (88%)
Language : English
Default : Yes
Forced : No
Color range : Limited
Color primaries : BT.709
Transfer characteristics : BT.709
Matrix coefficients : BT.709

Audio #1
ID : 2
Format : AC-3
Format/Info : Audio Coding 3
Commercial name : Dolby Digital
Codec ID : A_AC3
Duration : 43 min 17 s
Bit rate mode : Constant
Bit rate : 192 kb/s
Channel(s) : 2 channels
Channel layout : L R
Sampling rate : 48.0 kHz
Frame rate : 31.250 FPS (1536 SPF)
Compression mode : Lossy
Stream size : 59.5 MiB (4%)
Title : Україна
Language : Ukrainian
Service kind : Complete Main
Default : Yes
Forced : No

Audio #2
ID : 3
Format : AC-3
Format/Info : Audio Coding 3
Commercial name : Dolby Digital
Codec ID : A_AC3
Duration : 43 min 17 s
Bit rate mode : Constant
Bit rate : 384 kb/s
Channel(s) : 6 channels
Channel layout : L R C LFE Ls Rs
Sampling rate : 48.0 kHz
Frame rate : 31.250 FPS (1536 SPF)
Compression mode : Lossy
Stream size : 119 MiB (8%)
Language : English
Service kind : Complete Main
Default : No
Forced : No

Text
ID : 4
Format : UTF-8
Codec ID : S_TEXT/UTF8
Codec ID/Info : UTF-8 Plain Text
Duration : 42 min 34 s
Bit rate : 57 b/s
Count of elements : 662
Stream size : 18.1 KiB (0%)
Language : English
Default : No
Forced : No
Скріншоти

Дякую SgBILko, woxeloid, Sando7 за підготовку української доріжки, bober-mober за український постер.

Джерело: &
Особиста оцінка: 0 - не дивився





Бронзовий реліз (на рейтинг впливає 75% завантаженого)
 Трекер:    Зареєстрований   

Завантажити / скачати серіал українською



відео для новачків



 Зареєстрований:   2020-04-30 08:28
 Розмір:   30.64 GB 
 Оцінка серіалу:   10/10 (Голосів: 9)
   
Ваш часовий пояс: GMT + 2 Години

Нова тема   Відповісти