Поліцейська історія (Cop Story) / Flic story (1975) Remux 1080p Ukr/Fra | Sub Eng

Нові коментарі

Нова тема   Відповісти
Автор Повідомлення
MakRA 
VIP


З нами з: 11.11.18
Востаннє: 27.09.20
Повідомлень: 1120

2020-04-30 00:50  
Поліцейська історія (Cop Story) / Flic story (1975) Remux 1080p Ukr/Fra | Sub Eng


Альтернативні обкладинки та постери:





Жанр: кримінальний, драма, трилер
Країна: Франція



Кінокомпанія: Adel Productions, Lira Films, Mondial Televisione Film
Режисер: Жак Дере [Jacques Deray]
Актори: Ален Делон [Alain Delon], Жан-Луї Трентіньян [Jean-Louis Trintignant], Ренато Сальваторі [Renato Salvatori], Клодін Оже [Claudine Auger], Моріс Біро [Maurice Biraud], Маріо Давід [Mario David], Поль Кроше [Paul Crauchet], Марко Перрен [Marco Perrin], Джампьеро Альбертіні [Giampiero Albertini], Катрін Лашанс [Catherine Lachens], Ліонель Вітран [Lionel Vitrant], Крістін Буассон [Christine Boisson]

Сюжет:
Цей фільм розповідає про реальну історію полювання за небезпечним злочинцем Емілем Бюіссоном, що втік з в'язниці в 1947 році. Протягом трьох років Бюіссону вдавалося неодноразово вислизати з рук детектива Борінша, вбиваючи одного за іншим його інформаторів. Коли Бюіссон був спійманий, йому було пред'явлено звинувачення в скоєнні 30 вбивств і більше 100 пограбувань ...


Тривалість: 01:51:49
Якість: Remux 1080p [JPN Transfer]
Відео:
кодек:
розмір кадру: 1920 х 1080
бітрейт: 23 Mб/с

Аудіо # 1:
мова: українська
переклад: багатоголосий закадровий
кодек: 2.0
бітрейт: 192 кб/с
Про озвучення:
Ролі озвучили: Олександр Завальський, Дмитро Нежельський, Дмитро Вікулов та один жіночий.
Аудіо # 2:
мова: французька
переклад: оригінал
кодек: -HD MA 2.0
бітрейт: 982 кб/с

Аудіо # 3:
мова: французька
переклад: оригінал
кодек: 2.0
бітрейт: 192 кб/с

Субтитри: (Full)
мова: англійська
тип: програмні (м'які)
формат: *.srt

Збережено оригінальні розділи, як на Blu-ray.
Info
General
Unique ID : 55037066747535415326677459200475793494 (0x2967C0E4B90437243D6B4FB3AFE60856)
Complete name : E:\+Фільмографії- Ален Делон [Alain Delon]\Flic story (Cop Story) (1975) Remux 1080p UkrFra Sub Eng [Hurtom].
Format :
Format version : Version 4
File size : 19.0 GiB
Duration : 1 h 51 min
Overall bit rate mode : Variable
Overall bit rate : 24.3 Mb/s
Movie name : Поліцейська історія / Flic story (Cop Story) (1975) Remux 1080p Ukr/Fra | Sub Eng [Hurtom]
Encoded date : UTC 2020-04-29 20:17:31
Writing application : v44.0.0 ('Domino') 64-bit
Writing library : libebml v1.3.10 + v1.5.2
Cover : Yes
Attachments : cover.jpg

Video
ID : 1
Format : AVC
Format/Info : Advanced Video Codec
Format profile : [email protected]
Format settings : CABAC / 2 Ref Frames
Format settings, CABAC : Yes
Format settings, Reference : 2 frames
Codec ID : V_MPEG4/ISO/AVC
Duration : 1 h 51 min
Bit rate mode : Variable
Bit rate : 23.0 Mb/s
Width : 1 920 pixels
Height : 1 080 pixels
Display aspect ratio : 16:9
Frame rate mode : Constant
Frame rate : 23.976 (24000/1001) FPS
Color space : YUV
Chroma subsampling : 4:2:0
Bit depth : 8 bits
Scan type : Progressive
Bits/(Pixel*Frame) : 0.462
Stream size : 17.9 GiB (94%)
Title : Flic story (Cop Story) (1975) Remux 1080p Ukr/Fra | Sub Eng [Hurtom]
Language : Ukrainian
Default : Yes
Forced : Yes

Audio #1
ID : 2
Format : AC-3
Format/Info : Audio Coding 3
Commercial name : Dolby Digital
Codec ID : A_AC3
Duration : 1 h 51 min
Bit rate mode : Constant
Bit rate : 192 kb/s
Channel(s) : 2 channels
Channel layout : L R
Sampling rate : 48.0 kHz
Frame rate : 31.250 FPS (1536 SPF)
Compression mode : Lossy
Stream size : 154 MiB (1%)
Title : MVO [ІНТЕР] 2.0
Language : Ukrainian
Service kind : Complete Main
Default : Yes
Forced : Yes

Audio #2
ID : 3
Format : XLL
Format/Info : Digital Theater Systems
Commercial name : -HD Master Audio
Codec ID : A_DTS
Duration : 1 h 51 min
Bit rate mode : Variable
Bit rate : 982 kb/s
Channel(s) : 2 channels
Channel layout : L R
Sampling rate : 48.0 kHz
Frame rate : 93.750 FPS (512 SPF)
Bit depth : 16 bits
Compression mode : Lossless
Stream size : 786 MiB (4%)
Title : Original -HD MA 2.0
Language : French
Default : No
Forced : No

Audio #3
ID : 4
Format : AC-3
Format/Info : Audio Coding 3
Commercial name : Dolby Digital
Codec ID : A_AC3
Duration : 1 h 51 min
Bit rate mode : Constant
Bit rate : 192 kb/s
Channel(s) : 2 channels
Channel layout : L R
Sampling rate : 48.0 kHz
Frame rate : 31.250 FPS (1536 SPF)
Compression mode : Lossy
Stream size : 154 MiB (1%)
Title : Original 2.0
Language : French
Service kind : Complete Main
Default : No
Forced : No

Text
ID : 5
Format : UTF-8
Codec ID : S_TEXT/UTF8
Codec ID/Info : UTF-8 Plain Text
Duration : 1 h 49 min
Bit rate : 35 b/s
Count of elements : 1016
Stream size : 28.6 KiB (0%)
Title : Eng (Full)
Language : English
Default : No
Forced : No

Menu
00:00:00.000 : en:00:00:00.000
00:07:52.055 : en:00:07:52.055
00:18:32.320 : en:00:18:32.320
00:27:48.625 : en:00:27:48.625
00:36:20.470 : en:00:36:20.470
00:46:26.575 : en:00:46:26.575
00:55:55.936 : en:00:55:55.936
01:06:00.540 : en:01:06:00.540
01:13:40.333 : en:01:13:40.333
01:23:15.532 : en:01:23:15.532
01:32:12.485 : en:01:32:12.485
01:39:50.234 : en:01:39:50.234
Скріншоти
Джерело: &
Запис звуку з ТБ: Інтер -п. xslim
Зведення: п. kryk-v.ya.
Особиста оцінка: 9 - давно не бачив настільки якісне кіно


Золотий реліз (завантажене не впливає на рейтинг)
 Трекер:    Зареєстрований   

Завантажити / скачати фільм українською



відео для новачків



 Зареєстрований:   2020-04-30 00:50
 Розмір:   19.01 GB 
 Оцінка фільму:   10/10 (Голосів: 6)
   
Інші релізи
Ваш часовий пояс: GMT + 2 Години

Нова тема   Відповісти